<?xml version="1.0" standalone="no"?>
<!DOCTYPE svg PUBLIC "-//W3C//DTD SVG 1.1//EN" "http://www.w3.org/Graphics/SVG/1.1/DTD/svg11.dtd" >
<!--
2013-9-30: Created.
-->
<svg>
<metadata>
Created by iconfont
</metadata>
<defs>

<font id="iconfont" horiz-adv-x="1024" >
  <font-face
    font-family="iconfont"
    font-weight="500"
    font-stretch="normal"
    units-per-em="1024"
    ascent="896"
    descent="-128"
  />
    <missing-glyph />
    
    <glyph glyph-name="saomiao" unicode="&#58915;" d="M46.545545 523.636636c-27.927727 0-46.545545 18.617819-46.545545 46.545545L0 756.363364C0 830.836636 65.163364 896 139.636636 896l186.181182 0c27.927727 0 46.545545-18.617819 46.545545-46.545545 0-27.927727-18.617819-46.545545-46.545545-46.545545L139.636636 802.908909c-27.927727 0-46.545545-18.617819-46.545545-46.545545l0-186.181182C93.091091 542.254455 74.473272 523.636636 46.545545 523.636636zM325.817819-128 139.636636-128C65.163364-128 0-62.836636 0 11.635637L0 197.818818c0 27.926728 18.617819 46.545545 46.545545 46.545545 27.927727 0 46.544546-18.618818 46.544546-46.545545l0-186.182181c0-27.926728 18.617819-46.544546 46.545545-46.544546l186.181182 0c27.927727 0 46.545545-18.618818 46.545545-46.546544S353.745545-128 325.817819-128zM884.363364-128 698.181182-128c-27.926728 0-46.545545 18.617819-46.545545 46.545545s18.618818 46.546544 46.545545 46.546544l186.181182 0c27.927727 0 46.546544 18.617819 46.546544 46.544546L930.908909 197.818818c0 27.926728 18.617819 46.545545 46.545545 46.545545s46.545545-18.618818 46.545545-46.545545l0-186.182181C1024-62.836636 958.836636-128 884.363364-128zM977.454455 523.636636c-27.927727 0-46.545545 18.617819-46.545545 46.545545L930.908909 756.363364c0 27.927727-18.618818 46.545545-46.546544 46.545545L698.181182 802.908909c-27.926728 0-46.545545 18.617819-46.545545 46.545545 0 27.927727 18.618818 46.545545 46.545545 46.545545l186.181182 0c74.474271 0 139.636636-65.163364 139.636636-139.636636l0-186.181182C1024 542.254455 1005.382181 523.636636 977.454455 523.636636zM977.454455 337.454455 46.545545 337.454455C18.617819 337.454455 0 356.073272 0 384c0 27.927727 18.617819 46.545545 46.545545 46.545545l930.908909 0c27.927727 0 46.545545-18.617819 46.545545-46.545545C1024 356.073272 1005.382181 337.454455 977.454455 337.454455z"  horiz-adv-x="1024" />

    
    <glyph glyph-name="jietu01" unicode="&#59043;" d="M915.33665 832.16002l-91.317799 0c-24.714891 0-45.927005-20.103874-45.927005-44.817742l0-25.206078L245.906108 762.1362 245.906108 787.342278c0 24.713868-21.212114 44.817742-45.925982 44.817742l-91.318822 0c-24.713868 0-44.817742-20.103874-44.817742-44.817742l0-91.319845c0-24.712845 20.103874-45.925982 44.817742-45.925982l25.206078 0 0-532.192901-25.206078 0c-24.713868 0-44.817742-21.197788-44.817742-45.927005l0-91.304496c0-24.727171 20.103874-44.832068 44.817742-44.832068l91.318822 0c24.712845 0 45.925982 20.103874 45.925982 44.832068l0 25.192775 532.185738 0 0-25.192775c0-24.727171 21.212114-44.832068 45.927005-44.832068l91.317799 0c24.712845 0 44.819788 20.103874 44.819788 44.832068l0 91.304496c0 24.729218-20.10592 45.927005-44.819788 45.927005l-39.211047 0L876.125603 650.096451l39.211047 0c24.712845 0 44.819788 21.212114 44.819788 45.925982L960.156438 787.342278C960.156438 812.056146 940.050518 832.16002 915.33665 832.16002zM217.89617 694.928518c0-9.286504-7.521301-16.822131-16.807804-16.822131l-92.427062 0c-9.286504 0-16.808828 7.535627-16.808828 16.822131L91.852476 787.327952c0 9.293667 7.522324 16.822131 16.808828 16.822131l92.427062 0c9.286504 0 16.807804-7.528464 16.807804-16.822131L217.89617 694.928518zM217.89617-19.327952c0-9.299807-7.535627-16.822131-16.821107-16.822131l-92.399433 0c-9.299807 0-16.822131 7.523347-16.822131 16.822131l0 92.427062c0 9.272177 7.522324 16.794501 16.822131 16.794501l92.399433 0c9.286504 0 16.821107-7.523347 16.821107-16.794501L217.89617-19.327952zM932.145477-19.327952c0-9.274224-7.523347-16.822131-16.808828-16.822131l-92.427062 0c-9.28548 0-16.808828 7.54893-16.808828 16.822131l0 92.399433c0 9.299807 7.523347 16.822131 16.808828 16.822131l92.427062 0c9.28548 0 16.808828-7.523347 16.808828-16.822131L932.145477-19.327952zM848.116689 117.903549l-24.097838 0c-24.714891 0-45.927005-21.197788-45.927005-45.927005l0-38.101783L245.906108 33.874761l0 38.101783c0 24.729218-21.212114 45.927005-45.925982 45.927005l-38.102806 0L161.877319 650.096451l38.102806 0c24.712845 0 45.925982 21.212114 45.925982 45.925982l0 38.10383 532.185738 0 0-38.10383c0-24.712845 21.212114-45.925982 45.927005-45.925982l24.097838 0L848.116689 117.903549zM932.145477 694.928518c0-9.286504-7.523347-16.822131-16.808828-16.822131l-92.427062 0c-9.28548 0-16.808828 7.535627-16.808828 16.822131L806.10076 787.327952c0 9.293667 7.523347 16.822131 16.808828 16.822131l92.427062 0c9.28548 0 16.808828-7.528464 16.808828-16.822131L932.145477 694.928518z"  horiz-adv-x="1024" />

    
    <glyph glyph-name="tianchongxing-" unicode="&#58948;" d="M128.9 5.7v40.9-16.2c0.8-13.8 12.2-24.7 26.2-24.7h-26.2zM894.9 5.3H854h16.2c13.8 0.8 24.7 12.2 24.7 26.2v-26.2zM894.3 771.1v-40.9 16.2c-0.8 13.8-12.2 24.7-26.2 24.7h26.2zM129.1 771H170h-16.2c-13.8-0.8-24.7-12.2-24.7-26.2V771zM765.9 708.5h-506c-35.8-2-64.2-31.7-64.2-68v-504.3c2.7-33.2 29.1-59.6 62.3-62.3h509.2c34 2.8 61 30.6 62.4 65V647.7c-3.5 32.9-30.4 58.8-63.7 60.8zM267.6 852.5H107.7C75.5 848.9 50 822.6 47.6 790v-157.5c0-22.6 18.3-41 41-41 22.6 0 41 18.3 41 41V770.6h138.1c22.6 0 41 18.3 41 41-0.2 22.6-18.5 40.9-41.1 40.9zM267.6 6.4H129.5v138c0 22.6-18.3 41-41 41-22.6 0-41-18.3-41-41v-152.1c0-35.8 27.6-65.1 62.6-67.9h157.3c22.6 0 41 18.3 41 41 0.1 22.6-18.2 41-40.8 41zM975.5-12.5V144.4c0 22.6-18.3 41-41 41-22.6 0-41-18.3-41-41v-138.1H755.6c-22.6 0-41-18.3-41-41 0-22.6 18.3-41 41-41h157.6c33.4 2.8 60 29.7 62.3 63.2zM909.8 852.5H755.6c-22.6 0-41-18.3-41-41 0-22.6 18.3-41 41-41h138.1v-138.1c0-22.6 18.3-41 41-41 22.6 0 41 18.3 41 41V791.1c-3.4 33.8-31.5 60.4-65.9 61.4z"  horiz-adv-x="1024" />

    
    <glyph glyph-name="quanping" unicode="&#59322;" d="M128.025 768.377h256.093v-64.161H128.025zM128.025 704.216h64.012V512.21h-64.012zM640.124 768.01h256.05v-63.794h-256.05zM832.162 704.216h64.012V512.21h-64.012zM128.025 256.035h64.012V0.36h-64.012zM192.037 64.279h192.08v-63.919h-192.08zM832.162 256.035h64.012V0.36h-64.012zM640.124 64.279h194.209v-63.919H640.124zM255.953 640.047v-511.849h511.849V640.047H255.953z m447.38-447.38H319.041v383.11h384.293v-383.11z"  horiz-adv-x="1024" />

    
    <glyph glyph-name="tx-changfangxing" unicode="&#58960;" d="M962 94H62V674h900v-580zM162 194h700V574H162v-380z"  horiz-adv-x="1024" />

    
    <glyph glyph-name="saoma" unicode="&#59253;" d="M737.5 341.7H295.8c-29 0-43.4 14.5-43.4 43.4s14.5 43.4 43.4 43.4h441.7c29 0 43.4-14.5 43.4-43.4s-28.9-43.4-43.4-43.4z m-579.3 383v-700.9h716.9V724.7H158.2z m90.9-791.8H75.3V113.6c0 14.5-14.5 28.9-29 28.9S10.1 128 10.1 113.6v-202.3c0-14.5 14.5-28.9 29-28.9h202.8c14.5 0 29 7.2 29 28.9-0.1 14.4-14.6 21.6-21.8 21.6z m740.6 217.6c-14.5 0-29-14.5-29-28.9V-59h-181c-14.5 0-29-14.5-29-28.9 0-14.5 14.5-28.9 29-28.9h202.8c14.5 0 29 14.5 29 28.9V114.3c7.1 21.7-7.3 36.2-21.8 36.2z m-13 734.4H773.9c-14.5 0-29-14.5-29-28.9s14.5-28.9 29-28.9h181v-180.6c0-14.5 14.5-28.9 29-28.9s29 14.5 29 28.9V856c-7.3 14.4-21.7 28.9-36.2 28.9z m-720.4 0H39.1c-14.5 0-29-14.5-29-28.9v-202.3c0-14.5 14.5-28.9 29-28.9s29 14.5 29 28.9V819.8h181c14.5 0 29 14.5 29 28.9s-7.3 36.2-21.8 36.2z"  horiz-adv-x="1025" />

    
    <glyph glyph-name="chart-area" unicode="&#59279;" d="M85.504-42.688H1024V-128H0v85.312h0.192V896h85.312v-938.688zM128 172.672l212.736 271.552 303.424-155.52L990.912 640v-632.64H128v165.312z"  horiz-adv-x="1024" />

    
    <glyph glyph-name="chart-line" unicode="&#59280;" d="M85.504-42.688H1024V-128H0v85.312h0.192V896h85.312v-938.688z m120.256 169.984l-70.208 48.512L372.48 518.272l303.424-155.52 265.472 345.92 67.712-51.968-308.8-402.304-300.16 153.856-194.368-280.96z"  horiz-adv-x="1024" />

    
    <glyph glyph-name="chart-bar" unicode="&#59281;" d="M85.312-42.688H1024V-128H0V896h85.312v-938.688zM256 554.688h85.312V128H256V554.688zM512 768h85.312v-640H512V768z m256-213.312h85.312V128H768V554.688z"  horiz-adv-x="1024" />

    
    <glyph glyph-name="picture-fill" unicode="&#59343;" d="M0 832h1022.976v-896H0V832z m80-809.536h863.488l-216.576 280.32-140.8-85.824-196.096 234.496-310.016-428.992z m617.984 463.296a85.12 85.12 0 1 1 0.064 170.368 85.12 85.12 0 0 1-0.064-170.368z"  horiz-adv-x="1024" />

    
    <glyph glyph-name="phone" unicode="&#59404;" d="M626.24 122.368l37.888 71.168a64 64 0 0 0 72 32l174.72-43.52a64 64 0 0 0 48.512-62.08v-71.936H960V-64C465.152-64 64 337.152 64 832h112v-0.256h70.4a64 64 0 0 0 62.08-48.512l43.52-174.72A64 64 0 0 0 320 536.512L249.92 499.2a787.136 787.136 0 0 1 376.32-376.832z m207.872 7.232l-54.848 13.696a32 32 0 0 1-35.968-16l-29.568-55.488 144.64-36.032v62.784a32 32 0 0 1-24.32 31.04z m-569.472 528.64l-14.592 54.592a32 32 0 0 1-31.488 23.68l-62.784-1.024 38.592-144 54.912 30.464a32 32 0 0 1 15.36 36.288z"  horiz-adv-x="1024" />

    
    <glyph glyph-name="account" unicode="&#59415;" d="M512 725.568a117.568 117.568 0 1 0 0-235.136 117.568 117.568 0 0 0 0 235.136z m0-504c166.336 0 341.632-81.728 341.632-117.568v-61.632H170.368v61.632c0 35.84 175.232 117.632 341.568 117.632zM512 832a223.936 223.936 0 0 1-224-224C288 484.224 388.224 384 512 384s224 100.224 224 224S635.776 832 512 832z m0-512c-149.504 0-448-73.536-448-219.456V-64h896v164.544C960 246.464 661.504 320 512 320z"  horiz-adv-x="1024" />

    
    <glyph glyph-name="search" unicode="&#59438;" d="M1005.312-18.752l-198.528 198.464A448 448 0 1 1 0 448a448 448 0 0 1 716.288-358.784l198.4-198.4a64 64 0 1 1 90.624 90.432zM448 128.064A320 320 0 1 0 448 768a320 320 0 0 0 0-640z"  horiz-adv-x="1024" />

    
    <glyph glyph-name="align-left" unicode="&#59389;" d="M85.312 896v-1024H0V896h85.312zM1024 640H170.688V896H1024v-256z m-85.312 85.312V810.688H256v-85.376h682.688zM1024-128H170.688v256H1024v-256z m-85.312 85.312v85.376H256v-85.376h682.688zM853.312 256H170.688V512h682.624v-256zM768 341.312V426.688H256v-85.376h512z"  horiz-adv-x="1024" />

    
    <glyph glyph-name="delete" unicode="&#59408;" d="M341.312 810.688l64 85.312h213.376l64-85.312H960v-85.376H64V810.688h277.312zM170.688 640h682.624v-768H170.688V640zM256 554.688v-597.376h512V554.688H256z m213.312-85.376v-426.624H384V469.312h85.312z m170.688 0v-426.624H554.688V469.312H640z"  horiz-adv-x="1024" />

    
    <glyph glyph-name="calendar-alt" unicode="&#59418;" d="M929.28 793.472H1024V-128H0V793.472h94.72l4.864 0.128h113.728V896H312.96v-102.4h398.208V896h99.584v-102.4h113.728c1.664 0 3.2 0 4.864-0.128zM924.416-25.600000000000023v512H99.584v-512h824.832z m0 614.4V691.2H99.584v-102.4h824.832zM192 384h128v-128H192V384z m256 0h128v-128H448V384z m256 0h128v-128h-128V384z m-512-192h128v-128H192v128z m256 0h128v-128H448v128z m256 0h128v-128h-128v128z"  horiz-adv-x="1024" />

    
    <glyph glyph-name="search-minus" unicode="&#59436;" d="M1005.312-18.752l-198.528 198.464A448 448 0 1 1 0 448a448 448 0 0 1 716.288-358.784l198.4-198.4a64 64 0 1 1 90.624 90.432zM448 128.064A320 320 0 1 0 448 768a320 320 0 0 0 0-640zM256 512v-128h384V512H256z"  horiz-adv-x="1024" />

    
    <glyph glyph-name="search-plus" unicode="&#59437;" d="M1005.312-18.752l-198.528 198.464A448 448 0 1 1 0 448a448 448 0 0 1 716.288-358.784l198.4-198.4a64 64 0 1 1 90.624 90.432zM384 512H256v-128h128v-128h128V384h128V512H512V640H384v-128z m64-384A320 320 0 1 0 448 768a320 320 0 0 0 0-640z"  horiz-adv-x="1024" />

    
    <glyph glyph-name="redo" unicode="&#59441;" d="M1019.880673 448.550313l0.063994-0.511956h-132.468657l-0.063995 0.511956H572.750958l208.110181 206.382328A383.967123 383.967123 0 1 1 870.965424 256.054795h136.820284a511.956164 511.956164 0 1 0-134.388493 490.581994L1023.912328 896v-447.449687h-4.031655z"  horiz-adv-x="1024" />

    
    <glyph glyph-name="download" unicode="&#59450;" d="M1024 0v-128H0v320h128v-192h768v192h128v-192zM576 341.312L810.688 576 896 490.688l-384-384-384 384L213.312 576 448 341.312V896h128v-554.688z"  horiz-adv-x="1024" />

    
    <glyph glyph-name="upload" unicode="&#59451;" d="M1024 0v-128H0v320h128v-192h768v192h128v-192zM576 661.312V128H448V661.312L213.312 426.688 128 512l384 384 384-384-85.312-85.312L576 661.312z"  horiz-adv-x="1024" />

    
    <glyph glyph-name="arrow-left" unicode="&#59457;" d="M263.232 320L640-35.84 554.24-128 0 380.608 549.952 896 640 797.12 270.4 448H1024v-128H263.232z"  horiz-adv-x="1024" />

    
    <glyph glyph-name="sort-down" unicode="&#59459;" d="M64 576l448-448 448 448z"  horiz-adv-x="1024" />

    
    <glyph glyph-name="caret-right" unicode="&#59461;" d="M256 832l448-448-448-448z"  horiz-adv-x="1024" />

    
    <glyph glyph-name="angle-double-right" unicode="&#59466;" d="M802.88 384L384-34.88 477.12-128l512 512-512 512L384 802.88 802.88 384z m-384 0L0-34.88 93.12-128l512 512-512 512L0 802.88 418.88 384z"  horiz-adv-x="1024" />

    
    <glyph glyph-name="angle-down" unicode="&#59468;" d="M512 285.12L930.88 704 1024 610.88l-512-512-512 512L93.12 704z"  horiz-adv-x="1024" />

    
    <glyph glyph-name="process" unicode="&#59476;" d="M354.88 770.112A164.16 164.16 0 0 0 513.856 896c76.416 0 140.608-52.928 158.656-124.544a463.616 463.616 0 0 0 301.44-435.84c0-29.504-2.816-58.496-8.064-86.528 35.584-30.4 58.112-75.776 58.112-126.528 0-91.456-73.28-165.568-163.712-165.568-22.4 0-43.776 4.48-63.232 12.8A453.12 453.12 0 0 0 515.456-128c-104.128 0-200.256 35.2-277.248 94.4-22.336-11.52-47.68-18.112-74.496-18.112C73.28-51.712 0 22.464 0 113.92c0 54.208 25.792 102.4 65.6 132.544a471.232 471.232 0 0 0-8.448 89.216 463.68 463.68 0 0 0 297.728 434.432z m7.872-103.616a364.672 364.672 0 0 1-208.64-330.56c0-19.2 1.536-38.08 4.352-56.512l5.248 0.064c90.432 0 163.712-74.112 163.712-165.568a166.4 166.4 0 0 0-18.816-77.12 355.712 355.712 0 0 1 205.696-65.216 355.712 355.712 0 0 1 205.824 65.28 166.272 166.272 0 0 0-23.552 85.76c0 91.392 73.28 165.568 163.712 165.568 3.712 0 7.424-0.128 11.072-0.384a371.84 371.84 0 0 1 3.136 48.128c0 146.752-85.76 273.216-209.408 330.88a163.776 163.776 0 0 0-151.232-102.016 163.776 163.776 0 0 0-151.04 101.76z"  horiz-adv-x="1024" />

    
    <glyph glyph-name="new-releases" unicode="&#59480;" d="M661.952 746.048h180.096a32 32 0 0 0 32-32v-180.096l127.36-127.36a32 32 0 0 0 0-45.248l-127.36-127.36v-180.032a32 32 0 0 0-32-32h-180.096l-127.36-127.36a32 32 0 0 0-45.248 0l-127.36 127.36H182.016a32 32 0 0 0-32 32v180.096l-127.36 127.36a32 32 0 0 0 0 45.248l127.36 127.36V713.984a32 32 0 0 0 32 32h180.096l127.36 127.36a32 32 0 0 0 45.248 0l127.36-127.36zM476.8 678.784a32 32 0 0 1-32-32v-298.048a32 32 0 0 1 32-32h80.832a32 32 0 0 1 32 32V646.784a32 32 0 0 1-32 32H476.736z m0-434.432a32 32 0 0 1-32-32v-80.832a32 32 0 0 1 32-32h80.832a32 32 0 0 1 32 32v80.832a32 32 0 0 1-32 32H476.736z"  horiz-adv-x="1024" />

    
    <glyph glyph-name="alert" unicode="&#59483;" d="M168.176581 186.517022V493.883028c0 148.766679 118.119466 272.760195 275.058735 301.236563V895.936152h137.529368v-100.752713c156.875421-28.476369 275.058736-152.533732 275.058735-301.236563v-307.429854H958.938521v-126.100511H65.061479v66.785384 59.315127h103.115102zM659.362015-0.30327999999997246c0-70.552438-61.613668-127.69672-137.529368-127.69672C445.853099-128 384.30328-70.85571800000002 384.30328-0.30327999999997246h275.058735zM612.688864 672.722285l-97.432598-0.383091-175.136052-272.249407 80.895873-0.638484h133.315376L436.46739 216.14266099999998h98.90111L703.54508 479.00636l-204.953236 0.574635L612.752712 672.6584359999999z"  horiz-adv-x="1024" />

    
    <glyph glyph-name="rank" unicode="&#59498;" d="M0-42.688h1024V-128H0v85.312zM0 682.688h298.688v-640H0v640z m85.312-85.376V128h128V597.312h-128z m640 85.376H1024v-640h-298.688v640z m85.376-85.376V128h128V597.312h-128zM341.312 896h341.376v-853.312H341.312V896z m85.376-85.312V128h170.624V810.688H426.688z"  horiz-adv-x="1024" />

    
    <glyph glyph-name="sync-alt" unicode="&#59499;" d="M195.776 701.312a448.064 448.064 0 0 0 760.768-261.312H846.08a336.064 336.064 0 0 1-569.408 181.12l182.08-180.672H183.488l-0.064-0.448H67.456l0.064 0.448H64V832l131.776-130.688z m632.448-634.624A448.064 448.064 0 0 0 67.456 328H177.92a336.064 336.064 0 0 1 569.408-181.12L565.248 327.616h275.264l0.064 0.448h115.968l-0.064-0.448H960V-64l-131.776 130.688z"  horiz-adv-x="1024" />

    
    <glyph glyph-name="arrow-alt-from-top" unicode="&#59500;" d="M448 128V640h128v-512h192l-256-256-256 256h192z m576 640H0V896h1024v-128z"  horiz-adv-x="1024" />

    
    <glyph glyph-name="arrow-alt-from-botto" unicode="&#59501;" d="M576 640v-512H448V640H256l256 256 256-256H576zM0 0h1024v-128H0v128z"  horiz-adv-x="1024" />

    
    <glyph glyph-name="menu" unicode="&#59503;" d="M64 832h896v-128H64V832z m0-768h896v-128H64v128z m0 384h896v-128H64V448z"  horiz-adv-x="1024" />

    
    <glyph glyph-name="early-warning" unicode="&#59504;" d="M832 64h128v-128H64v128h128V512a320 320 0 1 0 640 0v-448zM478.208 493.056L624.64 704H518.016l-213.12-306.24 88.768-0.64v-0.064h146.304l-146.496-210.496 106.688-0.64 212.928 306.56 0.576 0.576H478.08z"  horiz-adv-x="1024" />

    
    <glyph glyph-name="share" unicode="&#59506;" d="M812.333229 193.003937c-46.845072 0-89.466408-18.430848-119.288544-51.132804L319.564027 359.20155a103.801512 103.801512 0 0 1 0 51.132804l373.480658 215.858509c29.822136-32.63796 72.443472-52.540716 119.288544-52.540716 90.87432 1.407912 159.094057 69.563652 160.501969 160.437972C971.491282 824.96444 903.271546 894.592088 812.333229 896c-90.87432-1.407912-160.437973-71.03556-161.90988-161.909881 0-9.91938 1.471908-19.83876 2.87982-29.822136L282.638335 491.225298A160.629961 160.629961 0 0 1 161.941879 545.301919C71.067558 543.830011 1.43991 475.546278 0.031998 384.671958c1.407912-90.87432 71.03556-159.030061 161.909881-160.501969 46.845072 0 90.87432 21.310668 120.696456 54.012625l370.664834-214.450597c-1.407912-9.983376-2.815824-19.83876-2.815824-31.230048 1.407912-90.87432 71.03556-159.094057 161.90988-160.501969 90.87432 1.407912 159.030061 69.563652 160.437973 160.501969-1.407912 90.87432-69.563652 159.030061-160.501969 160.437972z"  horiz-adv-x="1024" />

    
    <glyph glyph-name="minus-square-fill" unicode="&#59512;" d="M0 896h1024v-1024H0V896z m213.312-469.376v-85.312h597.376V426.624H213.312z"  horiz-adv-x="1024" />

    
    <glyph glyph-name="plus-square-fill" unicode="&#59513;" d="M0 896h1024v-1024H0V896z m554.624-213.312H469.312v-256h-256v-85.376h256v-256h85.312v256h256V426.624h-256v256z"  horiz-adv-x="1024" />

    
    <glyph glyph-name="minus-square" unicode="&#59515;" d="M85.312 810.688v-853.376h853.376V810.688H85.312zM0 896h1024v-1024H0V896z m213.312-469.376h597.376v-85.312H213.312V426.624z"  horiz-adv-x="1024" />

    
    <glyph glyph-name="plus-square" unicode="&#59516;" d="M85.312 810.688v-853.376h853.376V810.688H85.312zM0 896h1024v-1024H0V896z m554.624-213.312v-256h256v-85.376h-256v-256H469.312v256h-256V426.624h256v256h85.312z"  horiz-adv-x="1024" />

    
    <glyph glyph-name="bell" unicode="&#59527;" d="M803.904 116.096l-63.04 82.752c-16.832 18.56-26.24 43.52-26.24 69.376V461.44c0 61.952-20.736 118.4-57.728 158.912a189.248 189.248 0 0 1-62.976 45.568 212.096 212.096 0 0 1-164.928 0c-23.68-10.496-44.8-25.728-62.848-45.44-37.12-40.704-57.792-97.088-57.792-159.104v-193.28c0-25.92-9.536-50.688-26.752-70.016l-62.848-82.624 585.152 0.576zM128 136.96l86.848 114.304 2.816 3.328a19.584 19.584 0 0 1 5.44 13.568V461.44c0 82.688 28.288 159.744 80.064 216.576a271.872 271.872 0 0 0 91.392 65.92c72.192 32 161.792 32 233.984 0 34.56-15.36 65.28-37.568 91.264-65.92 51.84-56.832 80-133.824 80-216.64v-193.28c0-4.992 1.856-9.6 4.288-12.16l3.264-3.712 87.296-114.56 1.344-106.88-767.68-0.768L128 136.96z m213.184-179.712h341.12V-128H341.12v85.312zM426.496 896h170.496v-85.312H426.496V896z"  horiz-adv-x="1024" />

    
    <glyph glyph-name="structured-data" unicode="&#59528;" d="M85.312 640h853.376V810.688H85.312V640z m0-85.312v-597.376h853.376V554.688H85.312zM0 896h1024v-1024H0V896z m341.312-85.312h85.376V640H341.312V810.688zM256 384h341.312v-170.688H256V384z"  horiz-adv-x="1024" />

    
    <glyph glyph-name="vector" unicode="&#59529;" d="M85.312 15.744000000000028L916.352 846.72l60.352-60.288L147.648-42.68799999999999H1024V-128H0V896h85.312v-880.256zM339.2 597.312l60.352-60.288-211.2-211.2L128 386.176l211.2 211.2zM509.824 768l60.352-60.352-90.496-90.496-60.352 60.352L509.824 768z m303.872-384l60.352-60.352-301.696-301.696L512 82.30399999999997 813.696 384z"  horiz-adv-x="1024" />

    
    <glyph glyph-name="monitoring" unicode="&#59534;" d="M0 896h1024v-853.312H0V896z m85.312-85.312V128h853.376V810.688H85.312z m85.376-853.376h682.624V-128H170.688v85.312z m480.32 423.424L449.536 537.152 339.84 380.79999999999995H170.688V466.112h124.8l135.68 193.408 249.024-193.408h173.12v-85.376h-202.304z"  horiz-adv-x="1024" />

    
    <glyph glyph-name="Directory-tree" unicode="&#59538;" d="M213.312 213.312v-170.624h469.312V128H1024v-256h-341.312l-0.064 85.376H128v256h85.312zM1024 512v-256h-341.312l-0.064 85.376h-341.12V426.624h341.12V512H1024z m-85.312-85.312H768v-85.376h170.688V426.688zM1024 896v-256h-341.312l-0.064 85.376H213.312v-170.688H128v256h554.624V896H1024z m-85.312-85.312H768v-85.376h170.688V810.688z m-170.688-768v-85.376h170.688v85.376H768z m-768 512h341.312v-341.376H0V554.688z m85.312-85.376v-170.624H256V469.312H85.312z"  horiz-adv-x="1024" />

    
    <glyph glyph-name="application" unicode="&#59550;" d="M512 896l448-256v-512l-448-256-448 256V640l448 256z m0-98.24l-362.88-207.36v-412.8L512-29.76l362.88 207.36v412.8L512 797.76z m224-200.448l64.64-37.312v-74.688L736 448l-30.784 17.792-155.968-78.08v-185.216l27.392-15.808v-74.688L512 74.688l-64.64 37.312v74.688l27.392 15.808V387.648L318.72 465.792 288 448l-64.64 37.312V560l64.64 37.312 64.64-37.312v-27.712L512 452.48l159.36 79.872V560l64.64 37.312z"  horiz-adv-x="1024" />

    
    <glyph glyph-name="WIFI" unicode="&#59244;" d="M0 543.168l93.12-98.752c231.296 245.44 606.464 245.44 837.76 0L1024 543.168C741.44 842.944 283.008 842.944 0 543.168z m372.352-395.008L512 0l139.648 148.16c-76.8 81.92-202.048 81.92-279.296 0zM186.24 345.6l93.12-98.752c128.448 136.32 336.96 136.32 465.408 0L837.824 345.6c-179.648 190.592-471.488 190.592-651.648 0z"  horiz-adv-x="1024" />

    
    <glyph glyph-name="cut" unicode="&#59248;" d="M213.312 85.312h597.376V682.688H213.312v-597.376z m0-85.312v-128H128v128H0v85.312h128V768h682.688V896H896v-128h128v-85.312h-128V0H213.312z"  horiz-adv-x="1024" />

    
    <glyph glyph-name="poweroff" unicode="&#59252;" d="M320 704v-106.432c-97.28-61.12-161.792-167.68-161.792-289.024 0-189.632 157.632-343.36 352-343.36 194.432 0 352 153.728 352 343.36 0 119.808-62.848 225.28-158.208 286.72V704c151.36-70.144 256-220.608 256-394.944C960 67.648 759.424-128 512-128s-448 195.648-448 437.056C64 483.392 168.64 633.856 320 704z m128 192h128v-448H448V896z"  horiz-adv-x="1024" />

    
    <glyph glyph-name="chart-scatter-plot" unicode="&#59278;" d="M85.504-42.688H1024V-128H0v85.312h0.192V896h85.312v-938.688zM384.192 384a128 128 0 1 0 0 256 128 128 0 0 0 0-256z m298.688-298.688a128 128 0 1 0 0 256 128 128 0 0 0 0-256zM320.192 682.688a64 64 0 1 0 0 128 64 64 0 0 0 0-128z m-42.688-597.376a64 64 0 1 0 0 128 64 64 0 0 0 0-128z m426.688 341.376a64 64 0 1 0 0 128 64 64 0 0 0 0-128zM917.504 512a64 64 0 1 0 0 128 64 64 0 0 0 0-128zM746.88 725.312a64 64 0 1 0 0 128 64 64 0 0 0 0-128z m-298.688-512a64 64 0 1 0 0 128 64 64 0 0 0 0-128z"  horiz-adv-x="1024" />

    
    <glyph glyph-name="laptop" unicode="&#59287;" d="M85.312 731.2v-604.8h853.376v604.8H85.312zM682.688 25.6V-64H341.312v89.6H0V832h1024v-806.4h-341.312z"  horiz-adv-x="1024" />

    
    <glyph glyph-name="commentdots-fill" unicode="&#59304;" d="M64 832h896v-709.312H363.648L64-64V832z m224-298.688v-112h112v112H288z m186.688 0v-112h112v112h-112z m186.624 0v-112h112v112h-112z"  horiz-adv-x="1024" />

    
    <glyph glyph-name="position-fill" unicode="&#59311;" d="M512-128c-205.76 241.472-326.272 411.712-361.664 510.72a384 384 0 1 0 723.072-0.832C837.76 283.072 717.312 113.152 512-128.064z m0 512a128 128 0 1 1 0 256 128 128 0 0 1 0-256z"  horiz-adv-x="1024" />

    
    <glyph glyph-name="location-fill" unicode="&#59312;" d="M87.424 426.688a426.816 426.816 0 0 0 381.888 381.888V896h85.376v-87.424a426.816 426.816 0 0 0 381.888-381.888H1024v-85.376h-87.424a426.816 426.816 0 0 0-381.888-381.888V-128H469.312v87.424a426.816 426.816 0 0 0-381.888 381.888H0V426.688h87.424zM512 117.312a266.688 266.688 0 1 1 0 533.376 266.688 266.688 0 0 1 0-533.376z m0 149.376a117.312 117.312 0 1 1 0 234.624 117.312 117.312 0 0 1 0-234.624z"  horiz-adv-x="1024" />

    
    <glyph glyph-name="layergroup-fill" unicode="&#59317;" d="M947.648 435.456L1024 384l-512-345.088L0 384l76.352 51.456L512 141.888l435.648 293.568zM59.52 264.96L512-32l452.48 296.96 59.52-40.96L512-128l-512 352 59.52 40.96zM512 896l512-345.088-512-345.024-512 345.024L512 896z"  horiz-adv-x="1024" />

    
    <glyph glyph-name="unlock-fill" unicode="&#59320;" d="M467.2 182.08000000000004v-115.968a44.8 44.8 0 0 1 89.6 0v115.968c26.752 14.72 44.8 42.304 44.8 73.92 0 47.104-40.128 85.312-89.6 85.312-49.472 0-89.6-38.208-89.6-85.312 0-31.616 18.048-59.136 44.8-73.92zM243.2 512h448V640c0 94.272-80.256 170.688-179.2 170.688-98.944 0-179.2-76.416-179.2-170.688H243.2c0 141.44 120.32 256 268.8 256 148.48 0 268.8-114.56 268.8-256v-128H960v-640H64V512h179.2z"  horiz-adv-x="1024" />

    
    <glyph glyph-name="lock-fill" unicode="&#59321;" d="M467.2 182.08000000000004v-115.968a44.8 44.8 0 0 1 89.6 0v115.968c26.752 14.72 44.8 42.304 44.8 73.92 0 47.104-40.128 85.312-89.6 85.312-49.472 0-89.6-38.208-89.6-85.312 0-31.616 18.048-59.136 44.8-73.92zM64 512h896v-640H64V512z m268.8 0h358.4V640c0 94.272-80.256 170.688-179.2 170.688-98.944 0-179.2-76.416-179.2-170.688v-128zM512 896c148.48 0 268.8-114.56 268.8-256v-128H243.2V640c0 141.44 120.32 256 268.8 256z"  horiz-adv-x="1024" />

    
    <glyph glyph-name="phone-fill" unicode="&#59338;" d="M626.24 122.368l37.888 71.168a64 64 0 0 0 72 32l174.72-43.52a64 64 0 0 0 48.512-62.08v-71.936H960V-64C465.152-64 64 337.152 64 832h112v-0.256h70.4a64 64 0 0 0 62.08-48.512l43.52-174.72A64 64 0 0 0 320 536.512L249.92 499.2a787.136 787.136 0 0 1 376.32-376.832z"  horiz-adv-x="1024" />

    
    <glyph glyph-name="delete-fill" unicode="&#59342;" d="M341.312 810.688l64 85.312h213.376l64-85.312H960v-85.376H64V810.688h277.312zM170.688 640h682.624v-768H170.688V640z m298.624-170.688H384v-426.624h85.312V469.312z m170.688 0H554.688v-426.624H640V469.312z"  horiz-adv-x="1024" />

    
    <glyph glyph-name="user-group-fill" unicode="&#59347;" d="M409.6 768c113.152 0 204.8-93.056 204.8-208S522.752 352 409.6 352c-113.152 0-204.8 93.056-204.8 208S296.448 768 409.6 768z m0-475.456c136.704 0 409.6-68.224 409.6-203.712V-64H0v152.832C0 224.32 272.896 292.48 409.6 292.48zM887.488-64v168c0 115.456-133.12 197.248-276.288 214.464 24.832 3.008 74.368 0 94.592 0 136.704 0 318.208-78.976 318.208-214.464V-64h-136.512zM576 363.84a207.808 207.808 0 0 1 136.512 196.16c0 90.624-56.96 167.68-136.512 196.16 21.376 7.68 44.352 11.84 68.288 11.84 113.152 0 204.8-93.056 204.8-208s-91.648-208-204.8-208c-23.936 0-46.912 4.16-68.288 11.84z"  horiz-adv-x="1024" />

    
    <glyph glyph-name="user-fill" unicode="&#59349;" d="M512 384c123.776 0 224 100.224 224 224S635.776 832 512 832a223.936 223.936 0 0 1-224-224C288 484.224 388.224 384 512 384z m0-64c-149.504 0-448-85.76-448-256v-128h896v128c0 170.24-298.496 256-448 256z"  horiz-adv-x="1024" />

    
    <glyph glyph-name="cog-fill" unicode="&#59350;" d="M903.232 333.82399999999996l119.232-94.912-127.168-209.728-143.168 50.176a407.296 407.296 0 0 0-88.96-50.176L633.92-128H394.688l-33.664 157.184a387.328 387.328 0 0 0-88.96 50.176l-144-50.176-127.872 209.728L120.96 333.82399999999996A395.136 395.136 0 0 0 117.312 384c0 16.896 1.6 33.792 3.712 50.176L0.192 536.832l116.032 204.544 155.84-52.736a407.296 407.296 0 0 0 88.96 50.176L396.352 896h237.568l29.248-157.184c32.128-12.8 61.568-29.696 88.96-50.176l158.08 52.736 113.664-204.544-120.64-102.656c2.048-16.384 3.648-32.768 3.648-50.176 0-11.584-1.28-28.352-3.648-50.176zM512 576a192 192 0 1 1 0-384 192 192 0 1 1 0 384z"  horiz-adv-x="1024" />

    
    <glyph glyph-name="clock-fill" unicode="&#59351;" d="M533.312 339.584V676.48H438.848v-392.32h1.472l243.84-140.8 47.296 81.728-198.144 114.432zM511.488 896C794.624 896 1024 666.624 1024 384s-229.376-512-512.512-512C228.864-128 0 101.376 0 384s228.864 512 511.488 512z"  horiz-adv-x="1024" />

    
    <glyph glyph-name="exclamationcircle-f" unicode="&#59358;" d="M512-128A512 512 0 1 0 512 896a512 512 0 0 0 0-1024zM448 704v-384h128V704H448z m0-512v-128h128v128H448z"  horiz-adv-x="1024" />

    
    <glyph glyph-name="layer-group" unicode="&#59383;" d="M199.296 416.64L151.04 384 512 140.672 873.024 384l-48.32 32.64L512 205.824 199.296 416.576z m700.864 50.816l46.08-31.104L1024 384l-123.84-83.456L1024 217.088 512-128l-512 345.088 123.84 83.456L0 384l79.104 53.312 44.736 30.144L0 550.912 512 896l512-345.088-123.84-83.456z m-75.52-217.792L512 38.912l-312.704 210.752-48.32-32.64L512-26.24l361.024 243.328-48.32 32.576zM512 794.304L150.976 550.848 512 307.584l361.024 243.328L512 794.24z"  horiz-adv-x="1024" />

    
    <glyph glyph-name="huagongxingye" unicode="&#58914;" d="M512 770.6112c-217.7024 0-394.1376-176.4864-394.1376-394.1376C117.8624 158.7456 294.2976-17.6384 512-17.6896c217.7024 0.0512 394.1376 176.4608 394.1376 394.1632C906.1376 594.1248 729.7024 770.6112 512 770.6112M747.2384 141.2096c-17.2032-17.2032-36.352-32.4608-56.96-45.5936l-174.4384 278.0928-173.696-283.3408c-23.8848 14.208-45.8752 31.2576-65.4592 50.8416-59.6992 59.6992-96.64 141.696-97.408 232.6272l336.2816 0L354.3808 669.568C401.28 694.8608 454.912 709.1968 512 709.2224c59.9552-0.0256 115.9936-15.872 164.5568-43.5968l-160.5376-291.7632 328.6272 0C843.9552 282.9056 806.9376 200.9088 747.2384 141.2096"  horiz-adv-x="1024" />

    
    <glyph glyph-name="xunhuan" unicode="&#59000;" d="M250.917717 275.626667a31.675733 31.675733 0 0 0 43.349334 11.656533l21.333333-12.356267c7.7312-4.488533 16.469333 4.078933 12.1344 11.895467l-83.592533 151.057067a70.5024 70.5024 0 0 1-62.8224 36.369066l-172.612267-2.6624c-8.942933-0.136533-12.014933-11.963733-4.283733-16.452266l21.213866-12.288a31.675733 31.675733 0 0 0 11.554134-43.246934l-1.160534-1.9968a70.5536 70.5536 0 0 1 0-70.536533l113.834667-197.154133c7.799467-13.499733 27.8528-10.871467 32.170667 4.113066a389.239467 389.239467 0 0 0 40.840533 92.706134l28.040533 48.896zM544.737451 226.7136H286.877184c-7.082667-8.8064-70.980267-91.5456-64.3584-198.161067 1.348267-21.623467 16.1792-41.0112 37.154133-46.4896 5.666133-1.4848 11.5712-2.2528 17.595734-2.2528h267.485866a35.2768 35.2768 0 0 1 35.2768 35.2768V191.4368a35.293867 35.293867 0 0 1-35.293866 35.2768zM163.689984 548.130133l151.517867-87.483733a35.259733 35.259733 0 0 1 48.1792 12.9024l130.082133 225.314133c-7.1168 16.042667-49.339733 103.6288-140.373333 146.807467-15.786667 7.492267-34.594133 7.5776-49.476267-1.570133a70.314667 70.314667 0 0 1-24.064-24.712534L150.770517 596.309333a35.2768 35.2768 0 0 1 12.919467-48.1792zM524.718251 752.981333l33.314133-57.053866a31.6928 31.6928 0 0 0-11.502933-43.400534l-18.926934-10.939733c-7.748267-4.471467-4.676267-16.298667 4.266667-16.452267l172.612267-2.798933a70.536533 70.536533 0 0 1 62.839466 36.334933l83.694934 150.9888c4.334933 7.816533-4.386133 16.384-12.1344 11.912534l-23.825067-13.7728a31.675733 31.675733 0 0 0-43.281067 11.588266 70.536533 70.536533 0 0 1-61.098666 35.2768H482.768384c-15.581867 0-23.3472-18.688-12.544-29.9008a392.874667 392.874667 0 0 0 54.493867-71.7824zM1023.832917 369.92a70.058667 70.058667 0 0 1-9.130666 28.7744l-129.757867 224.733867a35.2768 35.2768 0 0 1-48.1792 12.9024l-152.4736-88.029867a35.2768 35.2768 0 0 1-12.919467-48.1792l125.525334-217.3952c10.052267-1.706667 112.1792-17.169067 201.796266 39.099733 16.418133 10.308267 26.897067 28.7744 25.1392 48.093867zM927.320917 236.202667c-37.9904-8.686933-72.704-10.103467-98.2016-9.3184l0.085334-0.1536h-0.341334l0.017067-0.017067h-58.743467a31.675733 31.675733 0 0 0-31.675733 31.675733v23.381334c0 8.942933-11.776 12.202667-16.384 4.539733l-88.814933-148.036267a70.570667 70.570667 0 0 1 0-72.584533l88.814933-148.036267c4.608-7.662933 16.384-4.4032 16.384 4.539734v25.9584c0 17.493333 14.1824 31.675733 31.675733 31.675733h2.696534a70.5536 70.5536 0 0 1 61.098666 35.2768l112.708267 195.2256c7.748267 13.346133-4.2496 29.320533-19.319467 25.873067z"  horiz-adv-x="1024" />

    
    <glyph glyph-name="nengyuanhuagong" unicode="&#58920;" d="M898.932201-128H251.05966v139.567115h647.872541v-139.567115z m-601.597587 46.390931h555.322634v46.39093H297.334614v-46.39093z m91.900433 64.321025l-44.999203 10.855478 138.82486 581.324751 36.37049 13.175024 185.099813-139.520724-0.278346-37.39109-226.735673-165.708404 341.135708-214.279708-24.517607-39.432291-350.251526 219.939402zM519.871907 529.823396l-56.643326-237.196828 188.509547 137.781063z m264.033982-546.925876l-54.671712 228.916046-350.251526-219.939401-24.517606 39.432291 341.158903 214.140535-226.782064 165.870772-0.278346 37.39109 185.099813 139.520724 36.393685-13.175024 138.82486-581.324751zM521.402808 430.407631l188.509547-137.781063-56.643327 237.196828z m458.968672 22.638774l-781.68718 192.522362L234.567684 780.241639l781.687181-192.42958zM255.582776 679.341365l691.804752-170.301106 11.96886 44.90642-691.804752 170.301107zM90.50065 334.262428l-21.502197 37.831804a538.575508 538.575508 0 0 0-48.710477 365.954855A193.844503 193.844503 0 0 0 231.065169 894.920019l16.42239-2.319546 27.324258-141.283579-26.976326-99.253396zM208.681545 849.526494c-35.001957-0.672668-116.441236-14.311602-143.440757-122.750403a485.57387 485.57387 0 0 1 24.633584-289.363429L205.341398 670.666261l21.966106 82.413488zM112.234801-128h-46.390931V383.622378h46.390931v-511.622378z m786.326273 111.894925l-45.463112 8.721494 92.549906 488.28774 45.463112-8.698299z"  horiz-adv-x="1024" />

    
    <glyph glyph-name="shiyouhuagong" unicode="&#58923;" d="M532.48 584.411429H383.268571c-13.165714 0-22.430476-8.777143-22.430476-22.430477V452.266667c0-13.653333 8.777143-22.430476 22.430476-22.430477h149.211429c13.165714 0 22.430476 8.777143 22.430476 22.430477V561.980952c0 13.653333-8.777143 22.430476-22.430476 22.430477zM856.259048 877.470476h-682.666667c-80.457143 0-146.285714-65.828571-146.285714-146.285714v-682.666667c0-80.457143 65.828571-146.285714 146.285714-146.285714h682.666667c80.457143 0 146.285714 65.828571 146.285714 146.285714v682.666667c0 80.457143-65.828571 146.285714-146.285714 146.285714zM770.925714 262.095238c0-38.034286-31.207619-67.291429-66.803809-67.291428-38.034286 0-66.80381 31.207619-66.80381 67.291428v143.36c0 8.777143-6.826667 15.60381-15.603809 15.60381h-15.60381v-226.255238l4.388572-2.438096c13.165714 0 24.380952-11.215238 24.380952-24.380952 0-13.653333-11.215238-24.868571-24.380952-24.868572h-307.2c-13.165714 0-24.380952 11.215238-24.380953 26.819048 0 13.653333 11.215238 24.868571 24.380953 24.868572h6.826666V595.626667v0.487619c0 21.942857 18.041905 39.984762 39.984762 39.984762h216.502857c21.942857 0 39.984762-18.041905 39.984762-40.472381v-125.318096h15.60381c38.034286 0 66.80381-31.207619 66.803809-67.291428v-143.36c0-8.777143 6.826667-15.60381 15.60381-15.60381s15.60381 6.826667 15.603809 15.60381V490.300952h-28.769523c-6.826667 0-11.215238 2.438095-15.60381 6.826667-8.777143 8.777143-8.777143 22.430476 0 31.207619l26.819048 26.819048-35.596191 35.59619c-8.777143 8.777143-8.777143 26.819048 0 35.596191 8.777143 8.777143 26.819048 8.777143 35.596191 0l53.638095-53.638096c8.777143-8.777143 15.60381-22.430476 15.603809-35.59619V262.095238z"  horiz-adv-x="1024" />

    
    <glyph glyph-name="xiaofang" unicode="&#58912;" d="M200.5 330.8c10 0 10 6.7 10 16.8V542.2c0 6.7-3.3 13.4-10 13.4-60.1 0-106.8-47-106.8-114.1-3.4-63.7 46.7-110.7 106.8-110.7z m617.5 0c63.4 0 113.5 50.3 113.5 114.1 0 63.7-53.4 110.7-116.8 110.7-6.7 0-20 0-20-10.1v-204.6c3.3-10.1 13.3-10.1 23.3-10.1zM334 696.5h333.8c6.7 0 13.4 6.7 13.4 20.1-10 90.6-86.8 161-180.3 161-96.8 0-173.6-73.8-180.3-167.7 0-6.7 6.7-13.4 13.4-13.4z m534.1-681H691.2V290.6h63.4c6.7 0 10 3.4 10 10.1V579.1c0 6.7-3.3 10.1-10 10.1h-63.4v63.7c0 6.7-3.3 10.1-10 10.1H327.3c-6.7 3.4-10-3.4-10-10.1v-63.7h-63.4c-6.7 3.4-13.4-3.4-13.4-10.1v-281.8c0-6.7 3.3-10.1 10-10.1H314v-271.7H177.1c-33.4 0-60.1-26.8-60.1-60.4 0-33.5 26.7-63.7 60.1-63.7h691c33.4 0 60.1 26.8 60.1 60.4 0 33.5-26.8 63.7-60.1 63.7zM497.6 357.7c-50.1 0-90.1 40.3-90.1 90.6s40.1 90.6 90.1 90.6c50.1 0 90.1-40.3 90.1-90.6s-40.1-90.6-90.1-90.6z"  horiz-adv-x="1024" />

    
    <glyph glyph-name="xiaofang1" unicode="&#59047;" d="M311.907912-17.521421v-69.283177c0-30.495298 6.420063-40.9279 24.610241-40.927899h358.721003c18.190178 0 24.61024 10.700104 24.61024 40.927899v107.001045H311.907912zM798.227661 132.012539h-1.605015c0 52.163009 2.140021 394.833856-9.095089 514.407524-8.292581 88.275862-130.273772 187.251829-177.621735 203.569488v3.477534a10.700104 10.700104 0 0 1-10.700104 10.700104h-32.635319A61.258098 61.258098 0 0 1 466.791925 875.134796C436.831632 874.599791 323.94553 872.994775 240.484715 878.344828 227.644589 878.879833 227.644589 878.344828 220.957024 871.38976a48.15047 48.15047 0 0 1-1.605016-39.85789 10.967607 10.967607 0 0 1 8.025079-3.210031s30.495298 11.770115 184.3093 10.700105c4.280042 0 9.095089-6.420063 0-11.23511a1387.53605 1387.53605 0 0 0-137.496343-59.118077 23.807732 23.807732 0 0 1-12.840126-13.375131 120.376176 120.376176 0 0 1-2.675026-25.145246 10.165099 10.165099 0 0 1 14.445141-8.560083 871.523511 871.523511 0 0 0 160.501568 80.250783 38.787879 38.787879 0 0 0 20.330198 1.605016v-119.038662a155.68652 155.68652 0 0 1-142.311389-154.081505v-473.747126h408.743991V530.323929a156.221526 156.221526 0 0 1-149.266457 154.61651V795.151515h28.355276a10.700104 10.700104 0 0 1 10.432602 9.630094c44.940439-31.565308 133.751306-102.185998 139.368861-176.016719 7.757576-87.740857 8.827586-443.519331 9.095089-496.752351a9.095089 9.095089 0 0 1-9.095089-9.095089v-133.751306a9.095089 9.095089 0 0 1 9.095089-9.095089h40.9279a9.362591 9.362591 0 0 1 9.095089 9.095089v133.751306a9.095089 9.095089 0 0 1-10.1651 9.095089z"  horiz-adv-x="1024" />

    
    <glyph glyph-name="fangdumianju" unicode="&#59077;" d="M718.726112 727.004255a12.159942 12.159942 0 0 1-22.2209 7.882264c-0.407398-0.531389-40.739793-56.85858-186.295986-61.021124a12.221938 12.221938 0 0 1 1.957281 5.75671 12.186512 12.186512 0 0 1-10.627772 12.044808 453.593308 453.593308 0 0 1-229.542162-39.58845 12.142229 12.142229 0 1 1 10.370934-21.964062 437.182257 437.182257 0 0 0 193.956839 38.791367l-0.061995-0.088564a12.11566 12.11566 0 0 1-2.568379-7.439441 12.221938 12.221938 0 0 1 12.018239-12.221937c118.304815-1.328471 179.697911 28.694984 208.694016 50.570481a206.984716 206.984716 0 0 1 25.453514-83.959398c7.271167-1.682731 13.337854-3.276896 18.279768-4.693933a12.204225 12.204225 0 0 1 3.144049 16.207352A176.801843 176.801843 0 0 0 718.726112 727.004255z m-24.240177 1.239907c0 0.354259 0 0.797083 0.061996 1.239907-0.044282-0.442824-0.017713-0.885648-0.061996-1.239907zM821.354963 530.124779a42.670504 42.670504 0 0 1-48.356362 10.007819 329.558352 329.558352 0 0 1 29.368076 128.684606 208.871145 208.871145 0 0 1-4.871062 45.876549c-14.692895 65.360798-42.263107 98.572585-83.7557 102.026611-15.144575 22.229756-81.169608 101.229528-242.127215 73.420191-192.548659-33.211787-279.722958-116.905492-259.10508-248.866994 0.309977-2.302684 8.741342-61.818207 34.30999-100.166751l0.619954-0.797082a42.342815 42.342815 0 0 1-47.718697-10.184949c-13.054447-13.019021-15.312848-38.259979-14.90545-57.124274 1.142485-52.253212 24.798135-125.496274 75.147205-172.258471a270.698209 270.698209 0 0 0-1.496745 27.897902c0 4.428238 0.097421 7.43944 0.203699 9.210736a238.053236 238.053236 0 0 0-49.551987 135.681222c-0.45168 21.432673 3.542591 35.248777 7.784843 39.411321 14.763747 14.790316 32.17558-0.797083 35.523328-4.073979a13.107585 13.107585 0 0 1 6.341237-3.365462V569.093277a294.176728 294.176728 0 0 0-22.212043 75.722875C218.361751 761.27882 298.840554 835.673224 475.748675 866.228068c164.730466 28.340725 218.073024-62.969549 220.269431-66.954963a12.239651 12.239651 0 0 1 10.627772-6.199534c13.205007 0 48.303224 0 67.140949-83.693704 10.716337-47.647844-1.115916-98.395456-11.51342-129.658818v-74.217275a13.143011 13.143011 0 0 1 6.341238 3.365462c3.338892 3.276896 20.759581 18.864295 35.514471 4.073979 4.224539-4.162544 8.254236-17.978648 7.784843-39.411321a238.159513 238.159513 0 0 0-49.534274-135.681222c0.088565-1.771295 0.194842-4.782497 0.194843-9.210736a271.114463 271.114463 0 0 0-1.505601-27.897902c50.313644 46.762197 74.013575 120.005259 75.15606 172.258471 0.425111 18.864295-1.833291 44.105254-14.87888 57.124274z m-83.357158-190.945636V439.523023h-40.854927c-4.862206-42.953912-34.921087-76.165699-71.268067-76.165699-39.712441 0-72.029725 39.588451-72.029725 88.299072s32.317283 88.210507 72.029725 88.210508c36.311554 0 66.423575-33.123223 71.268067-76.077135h40.854927V585.743453c-22.203187 6.819487-93.878652 24.975264-227.469746 24.975264s-205.257703-18.155777-227.46089-24.975264v-121.953684h40.854927c4.853349 42.953912 34.921087 76.077134 71.259211 76.077135 39.712441 0 72.020868-39.588451 72.020868-88.210508s-32.308427-88.299072-72.020868-88.299072c-36.311554 0-66.423575 33.211787-71.259211 76.165699h-40.854927v-101.406657c-0.079708-0.974212-0.425111-5.402451-0.425111-12.399068 0-34.894518 8.511074-132.404326 99.44052-171.638517l2.736651 1.328472a324.846707 324.846707 0 0 0 251.523937 0l2.745508-1.328472c90.911733 39.234192 99.431663 136.743999 99.431663 171.638517 0 6.996617-0.345403 11.424855-0.425111 12.399068a4.321961 4.321961 0 0 0-0.097421 1.062777zM618.842768 80.48146v55.795803a301.855293 301.855293 0 0 1-216.638275 0v-55.795803a321.844361 321.844361 0 0 0 216.638275 0z m-108.314709-5.57958c-97.182118 0-179.2728-46.496502-179.2728-101.495222s82.090682-101.406658 179.2728-101.406658 179.281657 46.407938 179.281657 101.406658-82.099538 101.495222-179.281657 101.495222z"  horiz-adv-x="1024" />

    
    <glyph glyph-name="weibiaoti-1" unicode="&#58913;" d="M256.02048 639.09888c0 33.47968-0.38912 63.22688 0.09216 92.95872 0.67072 41.29792 25.86624 67.08736 67.4048 67.24096 125.38368 0.47104 250.77248 0.45056 376.15616 0.0256 42.36288-0.14336 67.47136-26.24 68.21888-69.36064 0.49664-28.91264 0.09728-57.84064 0.09728-90.86464h112.4608c79.58528 0 79.58528 0 79.58528-78.59712 0-179.97824 0.0256-359.95136-0.02048-539.9296-0.01024-45.57824-6.54336-52.18816-51.42528-52.19328-264.4224-0.03072-528.83968-0.03072-793.26208 0-45.25568 0.00512-51.328 6.144-51.33824 52.0448-0.04608 189.35808-0.04608 378.71616 0.00512 568.07936 0.01024 42.37312 8.2432 50.49344 50.94912 50.57536 45.93152 0.09216 91.85792 0.02048 141.07648 0.02048z m638.5664-606.39744v268.0832H614.7072c0-19.01056-0.23552-35.97824 0.05632-52.93568 0.39424-23.06048-11.63776-36.00896-33.64864-36.54656-46.03392-1.12128-92.12416-1.05472-138.1632-0.06144-22.10816 0.47616-34.14528 13.16864-33.72032 36.31616 0.32256 17.65376 0.06144 35.32288 0.06144 53.26848H129.57696v-268.12416h765.00992zM129.23904 369.43872h277.28384c1.19296 3.20512 2.23232 4.73088 2.26304 6.272 0.26112 14.48448 0.27136 28.96896 0.50176 43.45344 0.44544 28.64128 9.74848 39.82848 37.36576 40.4224a3093.4272 3093.4272 0 0 0 130.41664 0.01024c27.27424-0.5632 37.10464-12.1088 37.6064-40.49408 0.29696-16.6656 0.05632-33.34656 0.05632-49.85344h280.01792V572.83072H129.23904v-203.392z m192.03584 271.87712h380.47232V734.43328H321.27488v-93.11744z m228.54656-364.22656V393.50784H474.1888v-116.41856h75.63264z"  horiz-adv-x="1024" />

    
    <glyph glyph-name="yujing" unicode="&#59514;" d="M861.090909-34.909091h116.363636a46.545455 46.545455 0 0 0 0-93.090909H46.545455a46.545455 46.545455 0 0 0 0 93.090909h116.363636V407.272727c0 192.791273 156.299636 349.090909 349.090909 349.090909 192.791273 0 349.090909-156.299636 349.090909-349.090909v-442.181818z m-93.090909 0V407.272727c0 141.381818-114.618182 256-256 256s-256-114.618182-256-256v-442.181818h512zM375.249455 245.015273l93.160727 248.413091 87.179636-32.674909-46.475636-123.950546 139.799273-1.349818-93.370182-247.156364-87.086546 32.884364 46.266182 122.484364-139.473454 1.349818zM418.909091 896h186.181818v-93.090909h-186.181818V896z m389.306182-84.130909l131.653818-131.653818-65.838546-65.838546L742.4 746.030545l65.838545 65.838546zM1024 477.090909v-186.181818h-93.090909v186.181818h93.090909zM0 290.909091v186.181818h93.090909v-186.181818H0zM84.130909 680.215273l131.653818 131.653818 65.838546-65.838546L149.969455 614.4 84.130909 680.215273z"  horiz-adv-x="1024" />

    
    <glyph glyph-name="miehuojiuyuanzhan" unicode="&#58945;" d="M512.421875 772.125l377.578125-188.578125v-50.203125H858.359375V54.9375h-92.390625V533.34375h-496.546875V54.9375h-92.390625V533.34375h-43.03125v49.78125L512.421875 772.125zM730.109375 291.609375h-5.90625l1.265625-1.265625-32.90625-12.65625v-114.75c0-15.609375-11.390625-28.6875-24.890625-28.6875h-301.21875c-13.921875 0-24.890625 12.65625-24.890625 28.6875v103.359375l-31.640625 19.828125 1.265625 1.265625h-7.171875c-6.75 0-12.65625 6.328125-12.65625 14.34375V434.625c0 8.015625 5.484375 14.34375 12.65625 14.34375h14.765625c6.75 0 12.65625-6.328125 12.65625-14.34375v-132.890625c0-3.796875-1.265625-7.59375-3.796875-10.125l13.921875-8.859375v151.875c0 15.609375 11.390625 28.6875 24.890625 28.6875h301.21875c13.921875 0 24.890625-12.65625 24.890625-28.6875v-143.4375l15.609375 5.90625c-1.6875 2.53125-2.953125 5.484375-2.953125 8.859375V434.625c0 8.015625 5.484375 14.34375 12.65625 14.34375h12.65625c6.75 0 12.65625-6.328125 12.65625-14.34375v-128.671875c-0.421875-7.59375-6.328125-14.34375-13.078125-14.34375z m-188.15625-99.984375h113.0625c6.75 0 12.65625 6.328125 12.65625 14.34375v14.34375c0 8.015625-5.484375 14.34375-12.65625 14.34375l-113.0625-14.34375c-6.75 0-12.65625-6.328125-12.65625-14.34375s5.90625-14.34375 12.65625-14.34375z m-175.5 14.34375c0-8.015625 5.484375-14.34375 12.65625-14.34375h113.0625c6.75 0 12.65625 6.328125 12.65625 14.34375s-5.484375 14.34375-12.65625 14.34375l-113.0625 14.34375c-6.75 0-12.65625-6.328125-12.65625-14.34375v-14.34375z m300.796875 178.875c0 11.8125-8.4375 21.515625-18.984375 21.515625h-263.25c-10.546875 0-18.984375-9.703125-18.984375-21.515625v-57.375c0-11.8125 8.4375-21.515625 18.984375-21.515625h263.25c10.546875 0 18.984375 9.703125 18.984375 21.515625v57.375zM554.609375 506.34375H604.8125c13.921875 0 24.890625-12.65625 24.890625-28.6875h-75.09375V506.34375z m-62.859375 0h50.203125v-28.6875h-50.203125V506.34375z m-62.4375 0h50.203125v-28.6875h-75.09375c-0.421875 0 10.96875 28.6875 24.890625 28.6875z m-50.203125-386.015625h50.203125c6.75 0 12.65625-6.328125 12.65625-14.34375v-28.6875c0-8.015625-5.484375-14.34375-12.65625-14.34375h-50.203125c-6.75 0-12.65625 6.328125-12.65625 14.34375v28.6875c0 7.59375 5.484375 14.34375 12.65625 14.34375z m225.703125 0h50.203125c6.75 0 12.65625-6.328125 12.65625-14.34375v-28.6875c0-8.015625-5.484375-14.34375-12.65625-14.34375H604.8125c-6.75 0-12.65625 6.328125-12.65625 14.34375v28.6875c0 7.59375 5.484375 14.34375 12.65625 14.34375z"  horiz-adv-x="1024" />

    
    <glyph glyph-name="tubiaozhexiantu" unicode="&#59290;" d="M929.28 0 65.28 0 65.28 272.32l184.448 184.448C261.76 451.264 275.072 448 289.28 448s27.456 3.264 39.552 8.768l129.216-129.216C452.48 315.52 449.28 302.144 449.28 288c0-52.992 43.008-96 96-96s96 43.008 96 96c0 14.144-3.264 27.52-8.768 39.552l317.44 317.44c13.824 13.76 13.824 36.096 0 49.92-13.76 13.76-36.096 13.76-49.92 0L581.76 376.704C570.496 381.376 558.208 384 545.28 384S520 381.376 508.736 376.704L377.984 507.52C382.656 518.72 385.28 531.072 385.28 544c0 52.992-43.008 96-96 96s-96-43.008-96-96c0-12.928 2.624-25.28 7.296-36.48L65.28 372.16 65.28 736c0 17.664-14.336 32-32 32s-32-14.336-32-32l0-437.312c-0.832-4.288-0.832-8.576 0-12.864L1.28-32c0-17.664 14.336-32 32-32l896 0c17.664 0 32 14.336 32 32S946.944 0 929.28 0zM545.28 320c17.664 0 32-14.336 32-32S562.944 256 545.28 256s-32 14.336-32 32S527.552 320 545.28 320zM289.28 576c17.664 0 32-14.336 32-32S306.944 512 289.28 512s-32 14.336-32 32S271.552 576 289.28 576z"  horiz-adv-x="1024" />

    
    <glyph glyph-name="tubiao" unicode="&#58930;" d="M972.067982-50.325604H49.546624V872.195755c0 12.881128-10.913178 23.804245-23.794307 23.804245A23.784367 23.784367 0 0 1 1.948072 872.195755v-945.749134c0-13.447659 10.356586-24.360837 23.804245-24.360838h946.315665c13.159424 0 23.804245 10.923117 23.804246 24.360838-0.009939 12.314597-10.644821 23.227775-23.804246 23.227775z m-532.797655 39.478273h176.380017c22.12453 0 39.756569 17.920273 39.756569 39.478272V803.039203c0 21.557999-17.632038 39.199977-39.756569 39.199977H439.270327a39.130403 39.130403 0 0 1-39.190037-39.199977v-774.418201c0-21.54806 17.353742-39.468334 39.190037-39.468333z m39.199977 774.129966h97.990003V68.099275H478.470304V763.282635zM136.335213-10.847331h176.668252c21.557999 0 39.478273 17.920273 39.478273 39.478272V301.609481c0 22.12453-17.920273 39.756569-39.478273 39.756569H136.335213c-21.836295 0-39.190038-17.632038-39.190037-39.756569v-272.97854c0-21.557999 17.363681-39.478273 39.190037-39.478272z m39.756569 273.256835h97.43341v-194.310229h-97.43341V262.409504z m566.113659-273.256835H918.873693c21.557999 0 39.190038 17.920273 39.190038 39.478272V592.220059c0 21.557999-17.632038 39.756569-39.190038 39.756568H742.205441c-21.826356 0-39.756569-18.198569-39.756568-39.756568v-563.589118c0-21.557999 17.930212-39.478273 39.756568-39.478272z m39.756569 563.589117h97.155115V68.099275h-97.155115V552.741786z"  horiz-adv-x="1026" />

    
    <glyph glyph-name="tubiao1" unicode="&#58910;" d="M896-32H128a32 32 0 0 0-32 32V768a32 32 0 0 0 64 0v-736H896a32 32 0 0 0 0-64zM352 0a32 32 0 0 0-32 32v320a32 32 0 0 0 64 0v-320a32 32 0 0 0-32-32zM576 0a32 32 0 0 0-32 32V448a32 32 0 0 0 64 0v-416a32 32 0 0 0-32-32zM800 0a32 32 0 0 0-32 32V512a32 32 0 0 0 64 0v-480a32 32 0 0 0-32-32zM256 480a32.64 32.64 0 0 0-25.6 12.8 32 32 0 0 0 6.4 44.8l256 192a31.36 31.36 0 0 0 41.6 0l108.8-108.16L876.8 793.6a32 32 0 1 0 38.4-51.2l-256-192a31.36 31.36 0 0 0-41.6 3.2L512 661.76 275.2 486.4a31.36 31.36 0 0 0-19.2-6.4z"  horiz-adv-x="1024" />

    
    <glyph glyph-name="tubiao2" unicode="&#58985;" d="M553.3-61.6c-4.5 0-9 0.1-13.5 0.2-99.1 3.4-191.9 44.3-261.5 115.2-69.6 71-108.7 164.8-110.1 264.2-0.2 12.1 4.6 24 13.2 32.7 8.5 8.7 20.4 13.6 32.6 13.6h305.4v298c0 12.3 5.1 24.3 14 32.9 8.9 8.6 21 13.2 33.3 12.8 97.1-3.3 188.7-42.9 257.8-111.5 69-68.5 109.3-159.7 113.4-256.7 2.3-54.5-6.7-107.7-26.8-158.1-19.3-48.4-47.9-91.9-84.8-129.2-37-37.3-80.2-66.1-128.5-85.8-46.2-18.8-94.7-28.3-144.5-28.3zM253 282.3c19.5-144.5 140.4-256.7 289.6-261.8 3.6-0.1 7.1-0.2 10.7-0.2 81 0 156.9 31.7 214.6 89.9 60.3 60.8 91.5 141 87.9 226-6 144.4-114.8 263.6-254.4 286.2V328c0-25.2-20.5-45.7-45.7-45.7H253zM454.3 387H112.6c-12.2 0-24 5-32.6 13.6-8.5 8.6-13.3 20.6-13.2 32.7 0.7 51.4 11.4 101.2 31.7 148 19.7 45.2 47.5 85.8 82.7 120.6 72.5 71.6 168.5 111 270.4 111h2.9c25-0.3 45.2-20.8 45.2-45.7v-334.5c0.3-25.1-20.2-45.7-45.4-45.7z m-302.6 82H418V729c-137.1-15.4-247.7-123.6-266.3-260z"  horiz-adv-x="1024" />

    
    <glyph glyph-name="weibiaoti38" unicode="&#58935;" d="M512-128C229.6-128 0 101.6 0 384S229.6 896 512 896s512-229.6 512-512S794.4-128 512-128zM512 800c-229.6 0-416-186.4-416-416 0-229.6 186.4-416 416-416s416 186.4 416 416C928 613.6 741.6 800 512 800z"  horiz-adv-x="1024" />

    
    <glyph glyph-name="gongju" unicode="&#58892;" d="M290.082748-43.694919l262.97025 357.194238c100.788497-27.76332 212.418924 8.658194 275.641851 99.282191s58.862619 207.965495-1.991354 292.970518L689.878247 509.626185l-138.816603 96.844676L687.886893 802.59568c-100.788497 27.76332-212.418924-8.658194-275.641851-99.282191s-58.862619-207.965495 1.991354-292.970518L164.901701 39.758772l125.181047-83.453691zM290.069445-62.708971a18.958794 18.958794 0 0 0-10.525728 3.192715l-125.19128 83.460854a18.992563 18.992563 0 0 0-8.111748 12.122085c-0.964978 4.956895 0.055259 10.117428 2.877537 14.31196l242.177691 359.907023c-59.662845 92.575442-58.010205 213.052351 5.365195 303.901475C447.561385 787.160129 531.208481 830.709995 620.423385 830.709995c24.52251 0 48.914036-3.285836 72.508407-9.782808a18.99154 18.99154 0 0 0 12.827143-11.862165 19.033495 19.033495 0 0 0-2.282996-17.337877L577.542762 611.179093l107.611903-75.089186L811.107285 716.637959a18.989493 18.989493 0 0 0 15.4816 8.131192c6.53381-0.538259 11.973706-2.914376 15.57472-7.94495 67.181075-93.875041 68.034513-220.440621 2.116197-314.927599-50.901297-72.954569-134.547369-116.503411-223.763296-116.503411-20.122293 0-40.134069 2.209318-59.699684 6.590092l-255.414157-346.951966c-3.712555-5.048993-9.485025-7.740288-15.33322-7.740288z m-98.738815 107.705024l94.209662-62.818721 252.201999 342.587565c4.659113 6.330172 12.771885 9.169847 20.363793 7.05365a235.081063 235.081063 0 0 1 62.410422-8.40953c76.797084 0 148.785651 37.461193 192.577017 100.242052 51.439556 73.733305 55.615669 170.170704 12.827143 247.765966L705.4632 498.740254a18.972097 18.972097 0 0 0-12.252045-7.833409 18.862603 18.862603 0 0 0-14.219863 3.119037l-138.798183 96.844676c-8.613168 6.014994-10.710946 17.857716-4.715395 26.471908L655.91676 790.018224a236.06753 236.06753 0 0 1-35.493375 2.672875c-76.797084 0-148.785651-37.479613-192.577017-100.260471-56.730049-81.307817-55.987129-190.237739 1.856278-271.025717a19.061125 19.061125 0 0 0 0.315178-21.681811L191.33063 44.996053z"  horiz-adv-x="1024" />

    
    <glyph glyph-name="yuan" unicode="&#58967;" d="M512 384m-512 0a100 100 0 1 0 1024 0 100 100 0 1 0-1024 0Z"  horiz-adv-x="1024" />

    
    <glyph glyph-name="manhole-cover" unicode="&#58894;" d="M246.576687 335.31288300000006l-1.570552 10.993865h-86.380368l3.141104-15.705521c23.558282-146.06135 142.920245-265.423313 288.981595-288.981595l15.705522-3.141104v81.668711l-10.993865 1.570552c-109.93865 21.98773-191.607362 105.226994-208.883436 213.595092zM248.147239 432.687117C268.564417 539.484663 350.233129 622.723926 455.460123 644.711656l10.993865 1.570553v81.668711l-15.705522-3.141104c-146.06135-23.558282-265.423313-142.920245-288.981595-288.981595l-3.141104-15.705522h86.380368l3.141104 12.564418zM772.711656 434.257669l1.570553-10.993865h86.380368l-3.141105 15.705521c-23.558282 146.06135-142.920245 265.423313-288.981595 288.981595l-15.705521 3.141105V644.711656l10.993865-1.570552c108.368098-23.558282 190.03681-105.226994 208.883435-208.883435zM695.754601 377.71779100000003v12.564418c-6.282209 97.374233-83.239264 172.760736-180.613497 172.760736-50.257669 0-95.803681-18.846626-131.92638-54.969325-34.552147-34.552147-54.969325-83.239264-54.969325-131.926381 0-100.515337 83.239264-182.184049 186.895705-182.184049 98.944785 3.141104 180.613497 83.239264 180.613497 183.754601z m-183.754601-97.374233c-56.539877 0-100.515337 43.97546-100.515337 100.515338 0 56.539877 43.97546 100.515337 100.515337 100.515337 56.539877 0 100.515337-43.97546 100.515337-100.515337 0-56.539877-43.97546-100.515337-100.515337-100.515338zM777.423313 335.31288300000006c-21.98773-103.656442-103.656442-186.895706-208.883436-213.595092l-9.423313-3.141104v-80.098159l15.705522 3.141104C720.883436 65.17791399999999 840.245399 184.53987700000005 863.803681 330.601227l3.141104 15.705521h-86.380368l-3.141104-10.993865zM512 896C229.300613 896 0 666.699387 0 384s229.300613-512 512-512 512 229.300613 512 512S794.699387 896 512 896zM78.527607 384v3.141104V384z m469.595092-431.90184v40.834355c0 18.846626-15.705521 34.552147-34.552147 34.552148-18.846626 0-34.552147-15.705521-34.552147-34.552148v-40.834355C266.993865-30.625766999999996 97.374233 137.423313 80.09816 349.447853h42.404907c18.846626 0 34.552147 15.705521 34.552148 34.552147 0 18.846626-15.705521 34.552147-34.552148 34.552147H80.09816C97.374233 630.576687 265.423313 800.196319 477.447853 815.90184v-40.834355c0-18.846626 15.705521-34.552147 34.552147-34.552148s34.552147 15.705521 34.552147 34.552148V815.90184C758.576687 798.625767 926.625767 629.006135 943.90184 418.552147h-39.263803c-18.846626 0-34.552147-15.705521-34.552147-34.552147 0-18.846626 15.705521-34.552147 34.552147-34.552147h39.263803C926.625767 138.99386500000003 758.576687-30.625766999999996 548.122699-47.90183999999999z"  horiz-adv-x="1024" />

    
    <glyph glyph-name="ditu" unicode="&#58882;" d="M819.348 691.349c-78.654 78.653-187.23 127.384-307.239 127.384-120.014 0-228.591-48.731-307.349-127.385-78.763-79.07-127.28-187.647-127.28-307.338 0-120.129 48.518-228.705 127.28-307.359 78.758-78.862 187.335-127.385 307.349-127.385 120.009 0 228.585 48.522 307.238 127.385 78.545 78.654 127.172 187.23 127.172 307.359 0.001 119.691-48.626 228.268-127.171 307.339z m-47.339-47.438c62.087-62.202 102.165-146.414 107.398-239.82H762.415a34.738 34.738 0 0 1-10.182 9.449c-2.909 73.521-16.636 141.713-37.547 200.201a34.282 34.282 0 0 1 3.799 10.044c15.351 8.524 30.322 17.957 44.546 28.883a235.98 235.98 0 0 0 8.978-8.757z m-93.824-472.038a34.389 34.389 0 0 1-9.187-4.158c-3.31 1.279-6.578 2.561-9.84 3.834-36.949 13.804-75.989 22.486-116.781 25.272a34.686 34.686 0 0 1-10.396 10.692v147.64a34.743 34.743 0 0 1 9.411 9.194h164.549a34.753 34.753 0 0 1 6.494-7.052c-2.826-68.379-14.988-131.783-34.25-185.422zM483.71 196.957c-41.362-2.645-80.909-11.395-118.117-25.408a1391.563 1391.563 0 0 1-8.398-3.129 34.275 34.275 0 0 1-11.443 4.236c-18.99 53.161-31.007 115.857-33.729 183.451a34.707 34.707 0 0 1 8.037 8.24h164.549a34.747 34.747 0 0 1 7.619-7.935v-150.158a34.665 34.665 0 0 1-8.518-9.297zM346.651 597.882a34.33 34.33 0 0 1 6.767 2.99c3.992-1.594 7.926-3.114 11.643-4.629 37.75-14.02 77.378-22.967 118.796-25.444a34.712 34.712 0 0 1 8.369-8.302v-150.909a34.737 34.737 0 0 1-7.308-7.497H319.747a34.697 34.697 0 0 1-7.744 7.815c2.731 68.795 15.096 132.176 34.648 185.976z m193.482-27.096c41.605 2.457 81.397 11.41 119.025 25.457a1462.2 1462.2 0 0 1 9.724 3.846 34.293 34.293 0 0 1 9.022-3.155c19.467-53.907 31.741-117.365 34.549-186.216a34.67 34.67 0 0 1-6.2-6.626H541.081a34.723 34.723 0 0 1-9.1 8.756V562.645a34.696 34.696 0 0 1 8.152 8.141zM731.18 679.171c-9.238-6.752-18.851-13.046-28.891-18.671a34.29 34.29 0 0 1-9.752 3.925c-2.169 4.311-4.408 8.572-6.877 12.828-9.195 16.66-18.917 31.414-28.963 45.093 26.607-11.334 51.724-26.076 74.483-43.175z m-158.37 67.54c29.171-17.954 55.999-48.939 77.8-88.913 1.595-2.984 3.188-5.871 4.735-8.754a34.302 34.302 0 0 1-4.866-13.376 344.326 344.326 0 0 1-5.536-2.235c-32.762-11.948-67.932-19.989-104.824-22.593a34.698 34.698 0 0 1-8.137 8.121V751.193c13.788-0.416 27.576-2.345 40.828-4.482z m-121.401 0c13.251 1.71 27.034 4.066 40.817 4.482v-132.084a34.697 34.697 0 0 1-8.335-8.254c-36.83 2.619-72.035 10.651-104.834 22.578-2.946 1.254-5.957 2.436-8.901 3.629a34.27 34.27 0 0 1-2.873 8.799c2.058 3.956 4.144 7.858 6.327 11.938 22.009 39.972 48.835 70.958 77.799 88.912z m-83.68-24.366c-10.473-13.679-20.194-28.433-29.281-45.093-2.279-4.044-4.401-8.095-6.51-12.187a34.283 34.283 0 0 1-11.676-3.628c-9.244 5.384-18.357 11.354-27.338 17.733 23.082 17.1 47.979 31.842 74.805 43.175zM252.21 643.911c2.564 2.981 6.192 5.984 8.977 8.757 13.032-10.014 26.702-18.761 40.823-26.716a34.342 34.342 0 0 1 6.426-15.688c-20.721-58.027-33.586-125.395-36.492-197.92a34.703 34.703 0 0 1-8.359-8.253H145.02c4.702 93.407 44.988 177.618 107.19 239.82z m0-520.018c-62.202 61.982-102.488 146.193-107.19 240.455h118.254a34.688 34.688 0 0 1 8.689-8.704c2.985-73.728 16.201-142.457 37.458-200.302a34.305 34.305 0 0 1-3.845-11.147c-15.392-9.128-30.261-18.771-44.391-29.071l-8.975 8.769z m40.714-35.688a311.822 311.822 0 0 0 30.379 20.045 34.4 34.4 0 0 1 7.367-2.928c2.531-5.044 5.042-10.078 7.778-14.773 9.087-16.243 18.809-31.413 29.281-44.883-26.826 11.541-51.723 25.438-74.805 42.539z m158.485-67.332c-28.964 18.601-55.79 49.158-77.799 88.913a726.847 726.847 0 0 0-5.156 9.808 34.332 34.332 0 0 1 5.114 12.496 75.193 75.193 0 0 0 5.489 1.634c33.434 13.165 69.561 20.757 107.006 23.342a34.68 34.68 0 0 1 6.163-5.985v-133.836c-13.783 0.208-27.566 1.49-40.817 3.628z m121.401 0c-13.252-2.138-27.04-3.42-40.828-3.629V149.82a34.711 34.711 0 0 1 7.866 7.132c36.991-2.692 72.252-10.259 105.095-23.229a76.898 76.898 0 0 0 9.097-2.909 34.292 34.292 0 0 1 3.204-8.498c-2.125-4.17-4.374-8.303-6.634-12.53-21.801-39.755-48.63-70.312-77.8-88.913z m83.887 24.793c10.473 13.47 19.768 28.64 28.963 44.883 2.674 4.457 5.087 9.222 7.423 14.009a34.281 34.281 0 0 1 9.24 2.837c10.027-5.743 19.629-12.092 28.856-19.189-22.758-17.102-47.875-30.999-74.482-42.54z m115.312 78.227l-8.978-8.77c-13.035 9.499-26.708 18.434-40.996 26.927a34.33 34.33 0 0 1-6.305 16.732c20.459 56.807 33.61 123.85 36.485 195.668a34.724 34.724 0 0 1 10.511 9.897h116.681c-5.233-94.261-45.311-178.472-107.398-240.454z"  horiz-adv-x="1024" />

    
    <glyph glyph-name="wuranyuanguanli" unicode="&#58952;" d="M1023.1 77c-1 13.5-3.5 14.7-16.9 13.6-14.7-1.2-27.2 6.2-32.3 19-5.2 13.1-1.4 26.7 10 36.1 7.7 6.3 8.7 11.5 1.7 18.9-10.6 11.2-21.6 22-33.1 32.2-8.9 7.9-13.1 6.9-20.6-2.6-9.2-11.6-23.9-15-37.3-8.8-12.5 5.9-18.4 16.6-17.5 31.8 0.7 10.4-2.4 14.1-12.8 14.9-8.1 0.6-16.2 1.1-23.9 1.6-8-0.9-15.5-1.5-22.9-2.5-10.4-1.4-12.6-4.4-11.7-15 1.4-16.1-5.3-28.2-18.7-33.7-13-5.4-26.4-1.5-36.5 10.5-6 7.1-11.3 8.1-17.9 1.8-11.2-10.5-22.2-21.3-32.4-32.9-8.7-9.8-7.7-13.2 2.3-21.5 9.6-8 13.7-18.2 11.1-30.6-2.7-12.6-10.7-20.6-23.1-23.6-4.6-1.1-9.6-0.4-14.4-0.3-6.5 0.1-10.7-2.9-11.5-9.3-2.4-17.8-2.5-35.6 0.8-53.3 1.3-7 5-9.7 12.1-9.3 3.7 0.2 7.5 1.1 11.1 0.7 13-1.3 23.3-10 26.8-22.2 3.5-12.1-0.7-24.5-11.1-32.9-8.6-6.9-9.6-11.7-2.1-19.7 10.4-11 21.1-21.8 32.5-31.8 9.7-8.5 13.4-7.5 21.4 2.8 11.1 14.2 30.9 16.1 44.5 4.4 9.1-7.8 11.6-17.7 10.4-29.1-0.9-8.5 2.2-13.3 9.7-13.5 16.7-0.3 33.4-0.4 50 0.6 10.8 0.7 13 4.5 11.8 15.4-1.8 15.8 4.9 28.3 18.2 33.9 13.4 5.7 27 1.8 37-10.5 6.1-7.5 11.4-8.6 18.3-2.1 11.4 10.9 22.6 22.2 33.1 34 7.6 8.6 6.5 13.2-2.6 20.1-7.7 5.8-12 13.4-12.5 23-1.1 19.5 14.8 34.3 34.5 32.4 10.1-1 15 1.9 15.3 10.7 0.2 15.6 0.4 31.2-0.8 46.8zM843.9-25.7c-43.4 0.5-78.2 35.8-77.6 78.7 0.6 42.4 35.5 77.2 77.3 77 43.2-0.2 78.8-35.7 78.4-78.2-0.4-43-35.7-78-78.1-77.5z m0 0M128.3 598.5c13.1 2.5 33.7-7.2 50.4-17 7.9-7.3 17.4-13.5 27.9-18.5h0.1c16.5-7.8 35.8-12.5 56.5-12.9-13.7-13.2-24.5-27.4-30.2-42.3-28-74.2-15-129.9-15-129.9h37S243 486 310.6 490.7c33.6 2.3 64.9-3 92.5-4.9 5.3-5.8 11.3-11.2 18-16.2-12.2-54.3-3.6-91.7-3.6-91.7h37s-4.1 38.5 6.8 70.5c18.6-6.6 39.2-10.4 61-10.4 10 0 19.7 0.8 29.2 2.3 5.3-1.4 10.8-2.6 16.4-3.4 14.7-43.2 65.7-75.1 126.5-75.1 44.5 0 83.8 17.1 107.4 43.2 61.1 7.5 107.9 48.1 107.9 97.2 0 3.1-0.2 6.1-0.6 9.1 33.1 13.3 55.7 40 55.7 70.7 0 30.4-22.1 56.9-54.7 70.3 8.8 10.2 14 22.4 14 35.6 0 28.1-23.4 51.7-55.9 60.6 2.6 7.4 4.1 15.1 4.1 23.1 0 49.3-52 89.3-116.2 89.3-9.2 0-18.1-0.9-26.7-2.5C715.9 880.6 687 896 653.2 896c-35 0-65-16.5-77.6-39.9-14.6 9-33.1 14.4-53.3 14.4-47.1 0-85.3-29.4-85.3-65.6 0-1.7 0.2-3.4 0.3-5C419.2 811.8 395.7 819 370 819c-44.1 0-81.7-21.2-96.7-51.1-5.9 1.2-11.9 2.1-18.3 2.1-38.1 0-68.9-23.7-68.9-53 0-3.1 0.5-6.1 1.2-9-23.2-8.4-55.4-23.4-81.4-48.4-27.6-26.5-57-87.1-54.9-96.7h31.7s20.3 30.8 45.6 35.6zM620 52.9c0 36 9.3 69.5 24.4 99.6l-64.3-47.4H539l-31.8 259.1h-138l-31.8-259.1h-3.7l-31.8 259.1h-138l-31.8-259.1h-3.2l-17.7 430.2H20.9L3.2 105.1H0V-128h713.2C657-87.4 620-21.7 620 52.9z"  horiz-adv-x="1024" />

    
    <glyph glyph-name="ditu1" unicode="&#58936;" d="M926.6 473.1C895 618.1 802 729.5 657.9 795.2c-8.4 3.8-17.5 4.1-25.6 0.7-16-6.6-22.5-24.2-28.3-39.6-1.7-4.5-4.4-11.8-6.2-14.8-18.2-12-26.4-37.1-19.1-59.9 4.4-13.7 13.9-23.9 26.2-29.4-0.3-10.7 1.2-24.2 5.9-41.4 5-18.2 13.6-40.4 34.8-50.9 24.5-12.1 55.6-2.7 82.9 8.1 5.4 1.9 9.3 2.7 11.8 2.9v-0.6c-1.9-14.3-6.7-23.2-12.3-33.5-15.1-28.2-24.2-52.8-2.9-113.5 11.9-34.2 33.2-55.7 52-74.7 13.7-13.8 25.5-25.7 32.2-40.7 11.9-29 48.4-48.5 80.5-65.7l6.1-3.3c3.3-1.8 6.9-2.7 10.6-2.7 3.2 0 6.5 0.7 9.5 2.1 6.4 3 11 8.9 12.4 15.8l0.1 0.7c5.5 25.2 20.7 114.7-1.9 218.3z m-36.5-179.9c-17.7 10.2-35.4 21.9-39.4 31.9-0.1 0.3-0.2 0.5-0.3 0.8-10 22.5-26 38.7-41.4 54.2-17 17.1-33 33.3-41.6 58v0.1c-16.5 46.8-9.9 59.1 0.1 77.7 6.4 11.9 14.3 26.6 17.3 49.3 0 0.3 0.1 0.6 0.1 0.9 2.1 22.6-7.2 34.8-15.3 41-5.8 4.5-14.6 8.6-27.4 8.6-8 0-17.6-1.6-28.9-5.7-0.2-0.1-0.4-0.2-0.7-0.3-32.1-12.8-43.2-11.6-47-9.7-2.8 1.4-7.1 6.5-11.7 22.9-6.3 22.7-4.1 32.3-3.5 34.4 4.8 6.6 5.7 15.3 2 22.8-4.1 8.5-13.2 13.5-22.6 12.4-7.1-0.8-8 1.3-8.4 2.2-1.6 3.5-0.3 8.7 0.9 9.7l1.5 0.9c11.6 7.7 16.9 21.9 21.9 35.5 1 2.6 2.3 6.1 3.6 9.3C906.8 626.6 902.8 387 890.1 293.2zM610.8 298.9c-12.2 10.5-20.8 19.3-28.4 27.1-24.7 25.4-40 38.7-93.1 38.7-33.9 0-71.6-3.6-93.9-30.3-18-21.6-22.5-52.8-14.1-98.3 10-54.4 32.3-70.2 47.1-80.6 10-7.1 12.1-8.6 10.8-27.7-4.3-59.6 7.3-83.7 20.7-105.1 1.1-1.8 2.2-3.5 3.2-5.2 9.4-16.4 28.1-42.6 52.4-42.6 1.9 0 3.9 0.2 5.8 0.5 28.2 4.9 34.4 40 36.5 51.5 11.5 64.4 32.6 98.2 53.7 125 18.8 24 68.7 87.5-0.7 147z m-34.3-119.4C553 149.6 527.2 109 514 34.8c-0.7-4-1.5-7.2-2.2-9.7-3.1 3.6-6.7 8.6-10.1 14.5-1.2 2.2-2.6 4.4-4 6.7-8.3 13.3-17.6 28.3-14 78.4 2.9 40.8-11.6 54.6-29.4 67.2-11.5 8.1-22.3 15.8-29 52.4-5.6 30.6-4.1 51.4 4.5 61.7 8.2 9.9 26.6 14.3 59.6 14.3 36.7 0 41.4-4.8 61.1-25.2 7.8-8.1 17.6-18.1 31.3-29.9 28-24.1 26.7-44.9-5.3-85.7zM306.5 410.8c0.4 0.5 1.6 1.5 3.8 2.7l0.9 0.5c11.1 5.9 27.5 14.7 34.5 15.6 0.6-1.1 1.4-3.1 2.2-6.5 5.9-23.4 23.5-38.5 46-39.4 26.8-1 54.3 19 63.5 46.6 5.1 15.3 9 16.2 27.5 20.2 9.9 2.2 22.2 4.9 36 10.9 34.1 14.9 69.9 34.8 62 81.9l-0.5 3.2c-4.5 27.4-11.2 68.8-83.8 68.8-31.5 0-48.4-13.7-58.6-21.9-1.2-0.9-2.6-2.1-3.8-3-2.2 1.4-6.6 4.5-13.8 11.7-2.2 2.2-4 4.1-5.5 5.8 2.2 0.5 4.5 1 6.3 1.4 9.3 2 18.9 4.1 27.4 8.3 23.8 11.9 47.7 51.4 41.7 80.6-3.9 19.2-19 31.4-40.3 32.6-24.3 1.4-36.7-4.6-44.9-8.5-5.2-2.5-5.6-2.7-14 0.3-34.1 12.2-56.2-20.3-69.5-39.8-1.9-2.7-4.2-6.1-6.4-9.1-1.5 1.8-3 3.7-4.3 5.3-15.7 19.6-39.5 49.2-74.3 48.2-7.9-0.2-26.5-0.8-71.4-62.3-24.3-33.2-47.3-72.5-60-102.5-1.4-3.4-2-7-1.7-10.6 6.6-74.7 41.9-118.1 52.7-129.7 8.6-15.6 43.3-64.6 162.3-121 2.4-1.1 4.9-1.8 7.5-2.1 1.1-0.1 2.2-0.1 3.3-0.1 10.2 0 22.8 4.2 28.5 16.5 9.8 21-10.2 41-18.7 49.5-31 31.3-34.7 42.4-34.6 45.9z m-17.1 42c-19.5-10.4-25.4-24.8-26.9-35.1-2-13.4 2.4-26.8 10.1-39.8-58.7 36.8-73.9 63.4-75.5 66.3-1.1 3.1-2.7 5-5.1 7.4-1.4 1.4-34.1 33.9-41.5 99 24.4 54.6 74.6 121.9 91.8 132.3 12.2-1.7 26.4-19.4 36-31.4 9.4-11.7 16.9-21.1 27.3-25.1 25.9-10.8 43.3 14.7 54.9 31.6 4.8 7.1 13.6 20 18.5 22.6 23.6-8.2 36-3.8 47.7 1.9 5.5 2.7 9.9 4.8 22.2 4.2-1-8.5-10.4-25.2-18-29-3.4-1.7-10.6-3.2-16.9-4.6-16.7-3.6-39.6-8.6-45.8-29.6-6-20.3 9.1-38.8 22.9-52.6 34.1-34.1 54.8-29.9 77-11.9 8.3 6.7 14.8 12 30.6 12 34.7 0 35.8-6.7 39.8-31.5l0.6-3.4c1.6-9.4 2.8-16.9-35.9-33.8-9.8-4.3-18.9-6.3-27.7-8.2-21-4.6-47.1-10.3-60.2-49.6-3.5-10.6-13.5-16.2-19.3-16.2h-0.3c-1.4 0.1-3.1 0.1-4.5 5.7-4.6 18.5-13.6 30.9-26.8 36.7-22.7 10.1-46.5-2.6-74.1-17.4l-0.9-0.5zM512 896C229.7 896 0 666.3 0 384s229.7-512 512-512 512 229.7 512 512S794.3 896 512 896z m0-979.5C254.2-83.5 44.5 126.2 44.5 384S254.2 851.5 512 851.5 979.5 641.8 979.5 384 769.8-83.5 512-83.5z"  horiz-adv-x="1024" />

    
    <glyph glyph-name="juliceliang" unicode="&#58884;" d="M171.240049 177.31921l137.569214-137.58343 56.835973 56.835974-137.583429 137.583429 74.86199 74.86199 136.275548-136.275548 56.835973 56.835974-136.275548 136.275548 73.411948 73.397731 188.44864-188.44864 56.835973 56.835973-188.44864 188.44864 74.193833 74.193834 135.792201-135.777985 56.835973 56.835974-135.7922 135.777984 72.075634 72.075634L874.453721 517.851703l56.835974 56.835973L749.949105 756.028266l83.135761 83.135761L776.248893 896 7.925477 127.676584l56.835973-56.835974 106.478599 106.4786zM860.138107 27.936416v-35.11377H163.861893v35.11377H7.925477v-155.936416h155.936416V-92.872013h696.276214v-35.127987h155.936416V27.936416H860.138107z"  horiz-adv-x="1024" />

    
    <glyph glyph-name="mianjiceliang" unicode="&#58885;" d="M305.222589 526.676584l56.875454 56.875453 361.982812-361.984234-56.875454-56.875454zM1024.270294 603.314764V896H731.058696v-103.422848H292.685236V896H0v-292.685236h103.465526v-438.629528H0v-292.685236h292.685236v103.422848h438.615302v-103.422848H1023.985774V164.685236h-106.125783V603.314764zM825.988636 797.371306h99.752546v-98.657145h-99.752546z m-728.469568 1.010045h97.547519v-97.632876H97.519068z m97.547519-831.977772H97.519068V67.052361h97.547519z m731.314764 3.044359h-94.517387V67.052361h94.517387z m-88.95503 195.237298h-106.125783v-103.422847H292.685236v103.422847H189.205485V603.314764h103.451299V706.794515h438.401912v-103.422847h106.367625z"  horiz-adv-x="1024" />

    
    <glyph glyph-name="alarm" unicode="&#59006;" d="M942.102-8.571c-21.954-35.544-57.556-55.418-99.308-55.418h-661.6c-41.752 0-77.35 19.874-99.3 55.418-21.945 35.544-23.78 76.303-5.111 113.685l330.8 662.296c20.324 40.686 58.976 64.597 104.411 64.597 45.448 0 84.095-23.91 104.411-64.597l330.804-662.296c18.674-37.382 16.839-78.142-5.107-113.685zM512 96c26.51 0 48 21.49 48 48s-21.49 48-48 48-48-21.49-48-48 21.49-48 48-48z m72 408c0 39.765-32.235 72-72 72s-72-32.235-72-72v-6l48-259.5h0.051c0.775-12.555 11.198-22.5 23.949-22.5 12.75 0 23.174 9.945 23.948 22.5H536L584 498v6z"  horiz-adv-x="1024" />

    
    <glyph glyph-name="wuranyuan" unicode="&#58958;" d="M183.805889 600.426555a89.590593 89.590593 0 0 0 50.097597-17.003929 114.456553 114.456553 0 0 1 27.791367-18.283794 139.139676 139.139676 0 0 1 56.13125-12.798656 121.952909 121.952909 0 0 1-29.985423-42.052728 255.973123 255.973123 0 0 1-16.272578-121.221557 9.324735 9.324735 0 0 1 9.141898-7.862032h18.283794a9.141897 9.141897 0 0 1 9.141897 9.507573c-0.182838 26.511502 2.742569 98.73249 57.593953 102.937763 46.440838 5.119462 66.370174-3.839597 103.120601-4.936624a38.578806 38.578806 0 0 1 18.283794-16.089739 241.346087 241.346087 0 0 1-4.753786-83.191265 8.959059 8.959059 0 0 1 8.959059-7.862032h19.197984a9.141897 9.141897 0 0 1 9.141898 9.507573 182.837945 182.837945 0 0 0 7.496355 60.51936 142.613597 142.613597 0 0 1 78.254641-8.044869 28.888395 28.888395 0 0 1 16.272577-3.291083c14.627036-42.966917 65.273146-74.597882 125.609668-74.597882a143.527787 143.527787 0 0 1 106.594522 42.966917c60.702198 7.313518 107.325874 47.720704 107.325874 96.538435a49.366245 49.366245 0 0 1 0 8.959059 79.534506 79.534506 0 0 1 54.851383 70.209771 79.351668 79.351668 0 0 1-54.851383 69.844095 53.571518 53.571518 0 0 1 13.895683 35.287723c0 27.974206-23.220419 51.377463-54.851383 60.336522a69.112743 69.112743 0 0 1 4.022435 22.854743c0 49.000569-51.5603 88.676403-115.370744 88.676404a157.057795 157.057795 0 0 1-27.974205-2.011218 87.762214 87.762214 0 0 1-75.694909 36.567589 86.29951 86.29951 0 0 1-76.974775-39.675834 101.475059 101.475059 0 0 1-53.023004 14.26136C528.455415 870.4782 490.60796 841.041291 490.60796 804.473702v-4.936625a121.404395 121.404395 0 0 1-66.735849 18.283795A105.86317 105.86317 0 0 1 327.88219 767.906113a83.191265 83.191265 0 0 1-18.283795 2.011217c-37.847455 0-68.564229-23.403257-68.564229-52.47449a35.287723 35.287723 0 0 1 1.279865-8.959059 232.20419 232.20419 0 0 1-80.814371-48.08638A266.9434 266.9434 0 0 1 109.756521 577.388974a9.141897 9.141897 0 0 1 8.593384-12.43298h15.541225a9.324735 9.324735 0 0 1 7.313518 3.656759 81.362885 81.362885 0 0 0 42.601241 31.813802zM658.270356 106.764104h-51.194625l-30.533936 244.820008a18.283794 18.283794 0 0 1-18.283795 16.089739h-106.411684a18.283794 18.283794 0 0 1-18.283794-16.089739l-29.985423-244.820008h-3.656759l-30.168261 244.820008a18.283794 18.283794 0 0 1-18.283795 16.089739H245.0566a18.283794 18.283794 0 0 1-18.283794-16.089739l-29.985423-244.820008h-3.108245l-17.186767 415.773487a18.283794 18.283794 0 0 1-18.283794 18.283794H102.443003a18.283794 18.283794 0 0 1-18.283794-18.283794l-17.186767-415.773487H44.849051a18.283794 18.283794 0 0 1-18.283795-16.638253L9.195652-108.070481a18.283794 18.283794 0 0 1 18.283794-19.929336h739.213811a18.283794 18.283794 0 0 1 15.906901 27.060016l-108.788577 198.196332a18.283794 18.283794 0 0 1-15.541225 9.507573z"  horiz-adv-x="1024" />

    
    <glyph glyph-name="wulianwangditushangtubiao_huabanfuben" unicode="&#58904;" d="M519.1 896C269.7 896 67.6 690.4 67.6 437.5c0-94.2 23.2-172.5 76.1-254.6C248.2 8.799999999999955 451.6-128 519.6-128s270.9 137.6 375.9 310.9c52 82.1 76.1 160.4 76.1 254.6C970.7 690.4 768.6 896 519.1 896z m0-828.3c-207.7 0-376.3 168.6-376.3 376.3 0 207.7 168.6 376.3 376.3 376.3 207.7 0 376.3-168.6 376.3-376.3 0.1-207.7-168.5-376.3-376.3-376.3z m0 0M520.3 444.9m-376.9 0a376.9 376.9 0 1 1 753.8 0 376.9 376.9 0 1 1-753.8 0ZM520.3 314.6c-13.3 0-25.6 6.5-33.3 17.2h-16.6c-13.2 0-24 10.8-24 24s10.8 24 24 24H487c7.7 10.7 20 17.2 33.3 17.2 13.3 0 25.6-6.5 33.3-17.2h16.6c13.3 0 24-10.8 24-24s-10.8-24-24-24h-16.6c-7.7-10.7-20-17.2-33.3-17.2zM470.4 362c-3.4 0-6.2-2.8-6.2-6.2 0-3.4 2.8-6.2 6.2-6.2h26.8l2.5-4.7c4.1-7.7 12-12.5 20.5-12.5s16.4 4.8 20.5 12.5l2.5 4.7H570c3.4 0 6.2 2.8 6.2 6.2 0 3.4-2.8 6.2-6.2 6.2h-26.8l-2.5 4.7c-4.1 7.7-12 12.4-20.5 12.4s-16.4-4.8-20.5-12.4l-2.5-4.7h-26.8zM520.3 233C403.2 233 308 328.29999999999995 308 445.3s95.2 212.3 212.3 212.3 212.3-95.2 212.3-212.3S637.3 233 520.3 233z m0 384.7c-95 0-172.4-77.3-172.4-172.4S425.2 273 520.3 273c95 0 172.4 77.3 172.4 172.4s-77.4 172.3-172.4 172.3zM520.3 160.39999999999998c-157.1 0-284.9 127.8-284.9 284.9s127.8 284.9 284.9 284.9c157.1 0 284.9-127.8 284.9-284.9S677.4 160.39999999999998 520.3 160.39999999999998z m0 529.9c-135.1 0-245-109.9-245-245s109.9-245 245-245 245 109.9 245 245-109.9 245-245 245z"  horiz-adv-x="1024" />

    
    <glyph glyph-name="changyongtubiao_yunyingshitu" unicode="&#58902;" d="M897.55 5.5499999999999545v53a4 4 0 0 1-4 4h-56a4 4 0 0 1-4-4v-53a4 4 0 0 0-4-4H773a4 4 0 0 0-4 4v53a4 4 0 0 1-4 4h-56a4 4 0 0 1-4-4v-53a4 4 0 0 0-4-4h-55.53a4 4 0 0 0-4 4v53a4 4 0 0 1-4 4h-56a4 4 0 0 1-4-4v-53a4 4 0 0 0-4-4h-56.54a4 4 0 0 0-4 4v53a4 4 0 0 1-4 4h-56a4 4 0 0 1-4-4v-53a4 4 0 0 0-4-4h-56.54a4 4 0 0 0-4 4v53a4 4 0 0 1-4 4h-56a4 4 0 0 1-4-4v-53a4 4 0 0 0-4-4h-56.54a4 4 0 0 0-4 4v53a4 4 0 0 1-4 4h-55a4 4 0 0 0-4 4v56a4 4 0 0 1-4 4H132a4 4 0 0 0-4 4v56.51a4 4 0 0 0 4 4h56.85a4 4 0 0 1 4 4v56a4 4 0 0 1-4 4H132a4 4 0 0 0-4 4V314.6a4 4 0 0 0 4 4h56.85a4 4 0 0 1 4 4v56a4 4 0 0 1-4 4H132a4 4 0 0 0-4 4v56.54a4 4 0 0 0 4 4h56.85a4 4 0 0 1 4 4v56a4 4 0 0 1-4 4H132a4 4 0 0 0-4 4v56.54a4 4 0 0 0 4 4h56.85a4 4 0 0 1 4 4v56a4 4 0 0 1-4 4H132a4 4 0 0 0-4 4v56.54a4 4 0 0 0 4 4h56.85a4 4 0 0 1 4 4v56a4 4 0 0 1-4 4H132a4 4 0 0 0-4 4V831.33a4 4 0 0 1-4 4H68a4 4 0 0 1-4-4v-889.78a4 4 0 0 1 4-4h888.88a4 4 0 0 1 4 4v56a4 4 0 0 1-4 4h-55.33a4 4 0 0 0-4 4zM132 62.51999999999998h55.85a4 4 0 0 0 4-4v-53a4 4 0 0 0-4-4H132a4 4 0 0 0-4 4v53a4 4 0 0 0 4 4zM435.1 607.6800000000001h-176a4 4 0 0 1-4-4V132a4 4 0 0 1 4-4h176a4 4 0 0 1 4 4V603.6800000000001a4 4 0 0 1-4 4zM371.1 192h-48a4 4 0 0 0-4 4V539.6800000000001a4 4 0 0 0 4 4h48a4 4 0 0 0 4-4V196a4 4 0 0 0-4-4zM683.47 800.22h-176a4 4 0 0 1-4-4v-663.93a4 4 0 0 1 4-4h176a4 4 0 0 1 4 4V796.22a4 4 0 0 1-4 4z m-64-607.93h-48a4 4 0 0 0-4 4V732.22a4 4 0 0 0 4 4h48a4 4 0 0 0 4-4v-535.93a4 4 0 0 0-4-4zM931.55 681.4h-176a4 4 0 0 1-4-4v-545.65a4 4 0 0 1 4-4h176a4 4 0 0 1 4 4V677.4a4 4 0 0 1-4 4z m-64-489.65h-48a4 4 0 0 0-4 4V613.4a4 4 0 0 0 4 4h48a4 4 0 0 0 4-4v-417.65a4 4 0 0 0-4-4z"  horiz-adv-x="1024" />

    
    <glyph glyph-name="ditu2" unicode="&#59580;" d="M635.957895 49.852632l-91.621053 53.894736-75.452631-37.726315-80.842106 113.178947v48.505263l-59.28421-26.947368-43.11579 53.894737H188.631579L64.673684 389.389474 48.505263 481.010526 16.168421 551.073684l32.336842 53.894737L134.736842 626.526316l16.168421 53.894737L323.368421 739.705263l32.336842-102.4 75.452632-53.894737 134.736842-43.115789 140.126316 102.4v53.894737L808.421053 831.326316 916.210526 734.315789l91.621053 21.557895-43.11579-113.178947 21.557895-70.063158-118.568421-107.789474-43.115789 32.336842-21.557895-16.168421 26.947368-43.115789-5.389473-43.11579 53.894737-118.568421-86.231579-150.905263-156.294737-75.452631z m-91.621053 113.178947l91.621053-53.894737 129.347368 64.673684 64.673684 113.178948-53.894736 107.789473 5.389473 37.726316-37.726316 64.673684L829.978947 572.631579l37.726316-32.336842 59.284211 53.894737-16.168421 53.894737 10.778947 32.336842-16.168421-5.389474-86.231579 75.452632-48.505263-70.063158v-64.673685l-183.242105-134.736842-172.463158 53.894737-102.4 70.063158-21.557895 70.063158-91.621053-37.726316-16.168421-59.28421-97.010526-21.557895-10.778947-10.778947 21.557894-53.894737L113.178947 410.947368 215.578947 303.157895h97.010527l37.726315-43.11579 97.010527 43.11579v-107.789474l37.726316-64.673684 59.28421 32.336842zM592.842105 17.515789l59.284211-26.947368-26.947369-53.894737-64.673684 21.557895 32.336842 59.28421zM916.210526 92.968421l-91.621052-123.957895-26.947369 91.621053 80.842106 75.452632 37.726315-43.11579z"  horiz-adv-x="1024" />

    
    <glyph glyph-name="bank-fill" unicode="&#58903;" d="M85.333333 42.666667h853.333334v-85.333334H85.333333v85.333334z m85.333334 341.333333h85.333333v-298.666667H170.666667v298.666667z m213.333333 0h85.333333v-298.666667H384v298.666667z m170.666667 0h85.333333v-298.666667h-85.333333v298.666667z m213.333333 0h85.333333v-298.666667h-85.333333v298.666667zM85.333333 597.333333l426.666667 213.333334 426.666667-213.333334v-170.666666H85.333333V597.333333z m426.666667-42.666666a42.666667 42.666667 0 1 1 0 85.333333 42.666667 42.666667 0 0 1 0-85.333333z"  horiz-adv-x="1024" />

    
    <glyph glyph-name="line" unicode="&#58880;" d="M187.733333-128h-170.666666c-10.24 0-17.066667 6.826667-17.066667 17.066667v170.666666c0 10.24 6.826667 17.066667 17.066667 17.066667h170.666666c10.24 0 17.066667-6.826667 17.066667-17.066667v-170.666666c0-10.24-6.826667-17.066667-17.066667-17.066667zM34.133333-93.866667h136.533334v136.533334H34.133333v-136.533334zM1006.933333 691.2h-170.666666c-10.24 0-17.066667 6.826667-17.066667 17.066667v170.666666c0 10.24 6.826667 17.066667 17.066667 17.066667h170.666666c10.24 0 17.066667-6.826667 17.066667-17.066667v-170.666666c0-10.24-6.826667-17.066667-17.066667-17.066667zM853.333333 725.333333h136.533334V861.866667h-136.533334v-136.533334zM187.733333 42.66666699999996c-3.413333 0-10.24 0-13.653333 3.413333-6.826667 6.826667-6.826667 17.066667 0 23.893333l648.533333 648.533334c6.826667 6.826667 17.066667 6.826667 23.893334 0s6.826667-17.066667 0-23.893334l-648.533334-648.533333c0-3.413333-6.826667-3.413333-10.24-3.413333z"  horiz-adv-x="1024" />

    
    <glyph glyph-name="building" unicode="&#58883;" d="M828.7 8.5V579.3l-310.6 82.4-145.7-44.6v215l-110.3-56.4v-50.9L183.3 679v-670.5h-49.7v-72.8h756v72.8h-60.9z m-567 37.9c-12.5-2.5-25-5-37.4-7.5v31.6c12.5 2.5 24.9 5 37.4 7.5v-31.6z m0 58.1c-12.5-2.7-25-5.4-37.4-8.1V128c12.5 2.7 24.9 5.4 37.4 8.2v-31.7z m0 58.2c-12.5-2.9-25-5.9-37.4-8.8v31.6c12.5 2.9 24.9 5.9 37.4 8.8v-31.6z m0 58.3c-12.5-3.2-25-6.3-37.4-9.5v31.6c12.5 3.1 24.9 6.3 37.4 9.4V221z m0 58.1c-12.5-3.4-25-6.8-37.4-10.1v31.6c12.5 3.4 24.9 6.8 37.4 10.2v-31.7z m0 58.3c-12.5-3.6-25-7.2-37.4-10.8v31.6c12.5 3.6 24.9 7.2 37.4 10.8v-31.6z m0 58.1c-12.5-3.8-25-7.7-37.4-11.5v31.6c12.5 3.8 24.9 7.6 37.4 11.4v-31.5z m0 58.2c-12.5-4-25-8.1-37.4-12.1v31.6c12.5 4 24.9 8.1 37.4 12.1v-31.6z m0 58.2c-12.5-4.3-25-8.5-37.4-12.8v31.6c12.5 4.2 24.9 8.5 37.4 12.8v-31.6z m0 58.2c-12.5-4.5-25-8.9-37.4-13.4v31.6c12.5 4.5 24.9 9 37.4 13.4v-31.6z m0 58.2c-12.5-4.7-25-9.4-37.4-14.1v31.6c12.5 4.7 24.9 9.4 37.4 14.1v-31.6z m65.1-569.7c-13.6-2.7-27.2-5.4-40.8-8.2v34.4c13.6 2.7 27.2 5.4 40.8 8.2v-34.4z m0 59.4c-13.6-3-27.2-5.9-40.8-8.9v34.4c13.6 3 27.2 5.9 40.8 8.9V118z m0 59.3l-40.8-9.6v34.4l40.8 9.6v-34.4z m0 59.4c-13.6-3.4-27.2-6.9-40.8-10.3v34.4c13.6 3.4 27.2 6.9 40.8 10.3v-34.4z m0 59.3c-13.6-3.7-27.2-7.4-40.8-11v34.4c13.6 3.7 27.2 7.4 40.8 11V296z m0 59.4c-13.6-3.9-27.2-7.8-40.8-11.8V378c13.6 3.9 27.2 7.8 40.8 11.8v-34.4z m0 59.3c-13.6-4.2-27.2-8.3-40.8-12.5v34.4c13.6 4.2 27.2 8.3 40.8 12.5v-34.4z m0 59.4L286 460.9v34.4l40.8 13.2v-34.4z m0 59.3c-13.6-4.6-27.2-9.3-40.8-13.9v34.4c13.6 4.7 27.2 9.3 40.8 13.9v-34.4z m0 59.3c-13.6-4.9-27.2-9.8-40.8-14.6v34.4c13.6 4.9 27.2 9.8 40.8 14.6v-34.4z m0 59.4L286 636.8v34.4c13.6 5.1 27.2 10.2 40.8 15.4v-34.5z m85.6-99.9l49.9 9.5 0.3-56.5-49.9-9.5-0.3 56.5z m0.7-127.5l49.9 9.5 0.3-56.7-49.9-9.5-0.3 56.7z m0.8-127.6l49.9 9.5 0.3-56.5-49.9-9.5-0.3 56.5z m0.8-124.2l49.9 6.2 0.4-56.6-49.9-6.2-0.4 56.6z m1-179.6l-0.3 56.5 49.9 1.6 0.3-56.5-49.9-1.6z m379.4-8.9l-235.3 7.9v54.1l235.3-7.9v-54.1z m0 120.9l-234.8 25.4-0.5 58.2 235.3-29.5v-54.1z m0 117.6l-235.3 39.8v54.1L795.1 277v-54.1z m4.7 119.3l-240.1 49.3v54.1l240.1-49.3v-54.1z m0 127.2l-236.9 60.4v54.1l236.9-60.4v-54.1z"  horiz-adv-x="1024" />

    
    <glyph glyph-name="jietu" unicode="&#59004;" d="M841.432406-53.533906H0.020268v61.818614h841.412138a46.36396 46.36396 0 0 1 46.343692 46.282886V896h61.818613v-841.432406a108.223111 108.223111 0 0 0-108.162305-108.1015zM136.244171-128h-61.818614V713.422271A108.243379 108.243379 0 0 0 182.577729 821.533906h841.422271v-61.818614H182.577729a46.384229 46.384229 0 0 1-46.333558-46.333557zM107.969756 20.392035L893.122901 805.54518l43.683465-43.683464-785.153146-785.153145z"  horiz-adv-x="1024" />

    
    <glyph glyph-name="celiang" unicode="&#58942;" d="M996.195576 565.481188l-184.522773 181.336351L895.099112 827.92645a7.241867 7.241867 0 0 1 0 4.055445 5.793494 5.793494 0 0 1 0 4.055446l-57.934937 57.934936a5.503819 5.503819 0 0 1-8.110891 0L27.813115 107.505516a4.92447 4.92447 0 0 1-1.738049-4.055445 5.793494 5.793494 0 0 1 1.738049-4.055446l57.934936-57.934936a5.503819 5.503819 0 0 1 8.110891 0l106.600283 105.151909 139.043847-137.016124a5.503819 5.503819 0 0 1 8.110891 0l57.934937 57.934936a5.793494 5.793494 0 0 1 1.448373 4.055446 6.952192 6.952192 0 0 1-1.448373 4.055445L266.505052 212.367751l69.811599 68.6529 137.595473-135.567751a5.503819 5.503819 0 0 1 8.110892 0l57.934936 57.934936a4.92447 4.92447 0 0 1 1.738048 4.055445 5.793494 5.793494 0 0 1-1.738048 4.055446l-137.595474 135.278076 68.07355 67.494201 192.054314-189.447242a6.083168 6.083168 0 0 1 8.110891 0l57.934937 57.934937a5.793494 5.793494 0 0 1 1.738048 4.055445 4.92447 4.92447 0 0 1-1.738048 4.055446l-191.76464 189.157567L610.3489 548.390382l137.305799-135.278076a5.793494 5.793494 0 0 1 7.821216 0l57.934936 57.934936a4.92447 4.92447 0 0 1 1.738049 4.055445 5.793494 5.793494 0 0 1-1.738049 4.055446L677.553426 615.015559l66.914851 65.756152 184.522773-181.626025a5.503819 5.503819 0 0 1 8.110891 0l57.934936 57.934936a5.793494 5.793494 0 0 1 1.738048 4.055446 7.241867 7.241867 0 0 1-0.579349 4.34512zM188.292888-28.641584m14.483734 0l706.516549 0q14.483734 0 14.483734-14.483734l0-70.101273q0-14.483734-14.483734-14.483734l-706.516549 0q-14.483734 0-14.483734 14.483734l0 70.101273q0 14.483734 14.483734 14.483734Z"  horiz-adv-x="1024" />

    
    <glyph glyph-name="qiye" unicode="&#58905;" d="M363.154286 586.24m9.874285 0l40.594286 0q9.874286 0 9.874286-9.874286l0-40.594285q0-9.874286-9.874286-9.874286l-40.594286 0q-9.874286 0-9.874285 9.874286l0 40.594285q0 9.874286 9.874285 9.874286ZM463.36 345.6m9.874286 0l40.594285 0q9.874286 0 9.874286-9.874286l0-40.594285q0-9.874286-9.874286-9.874286l-40.594285 0q-9.874286 0-9.874286 9.874286l0 40.594285q0 9.874286 9.874286 9.874286ZM363.154286 345.6m9.874285 0l40.594286 0q9.874286 0 9.874286-9.874286l0-40.594285q0-9.874286-9.874286-9.874286l-40.594286 0q-9.874286 0-9.874285 9.874286l0 40.594285q0 9.874286 9.874285 9.874286ZM463.36 465.92m9.874286 0l40.594285 0q9.874286 0 9.874286-9.874286l0-40.594285q0-9.874286-9.874286-9.874286l-40.594285 0q-9.874286 0-9.874286 9.874286l0 40.594285q0 9.874286 9.874286 9.874286ZM363.154286 465.92m9.874285 0l40.594286 0q9.874286 0 9.874286-9.874286l0-40.594285q0-9.874286-9.874286-9.874286l-40.594286 0q-9.874286 0-9.874285 9.874286l0 40.594285q0 9.874286 9.874285 9.874286ZM623.908571 465.92m9.874286 0l40.594286 0q9.874286 0 9.874286-9.874286l0-40.594285q0-9.874286-9.874286-9.874286l-40.594286 0q-9.874286 0-9.874286 9.874286l0 40.594285q0 9.874286 9.874286 9.874286ZM512 896a512 512 0 1 1 512-512A512 512 0 0 1 512 896z m292.571429-710.948571a9.874286 9.874286 0 0 0-9.874286-9.874286H252.708571a9.874286 9.874286 0 0 0-9.874285 9.874286v20.114285a9.874286 9.874286 0 0 0 9.874285 9.874286h50.468572V636.342857A40.228571 40.228571 0 0 0 343.04 676.571429h200.777143A40.228571 40.228571 0 0 0 585.142857 636.342857v-100.205714h120.32a40.228571 40.228571 0 0 0 40.228572-40.228572v-280.868571h50.102857a9.874286 9.874286 0 0 0 9.874285-9.874286zM623.908571 345.6m9.874286 0l40.594286 0q9.874286 0 9.874286-9.874286l0-40.594285q0-9.874286-9.874286-9.874286l-40.594286 0q-9.874286 0-9.874286 9.874286l0 40.594285q0 9.874286 9.874286 9.874286ZM463.36 586.24m9.874286 0l40.594285 0q9.874286 0 9.874286-9.874286l0-40.594285q0-9.874286-9.874286-9.874286l-40.594285 0q-9.874286 0-9.874286 9.874286l0 40.594285q0 9.874286 9.874286 9.874286Z"  horiz-adv-x="1024" />

    
    <glyph glyph-name="tx-liubianxing" unicode="&#58959;" d="M740.867-12.41H283.132L54.265 384l228.867 396.41h457.735L969.735 384 740.867-12.41z m-400 100h342.266L854.265 384 683.133 680.41H340.867L169.735 384l171.132-296.41z"  horiz-adv-x="1024" />

    
    <glyph glyph-name="liubianxing1" unicode="&#58953;" d="M675.9 788.8H348.1c-42.9 0-82.5-22.9-104-60.1L80 443.9c-21.4-37.1-21.4-82.7 0-119.8l164.1-284.8c21.4-37.2 61.1-60.1 104-60.1h327.8c42.9 0 82.5 22.9 104 60.1L944 324.1c21.4 37.1 21.4 82.7 0 119.8L779.9 728.7c-21.4 37.1-61.1 60.1-104 60.1z"  horiz-adv-x="1024" />

    
    <glyph glyph-name="guanxianbiaozhu" unicode="&#59251;" d="M219.355429 18.285714L219.428571-54.857143a73.142857 73.142857 0 0 0-73.142857-73.142857H73.142857a73.142857 73.142857 0 0 0-73.142857 73.142857v73.142857h219.355429zM0 457.142857a292.571429 292.571429 0 1 0 585.142857 0h0.292572v-256a109.714286 109.714286 0 0 1 219.428571 0L804.790857 530.285714H1024V676.571429h-219.428571l0.146285-4.534858A74.24 74.24 0 0 0 804.571429 676.571429V822.857143a73.142857 73.142857 0 0 0 73.142857 73.142857h73.142857a73.142857 73.142857 0 0 0 73.142857-73.142857v-73.142857h0.292571v-548.571429a329.142857 329.142857 0 0 0-658.285714 0V237.714286H365.714286V457.142857a73.142857 73.142857 0 1 1-146.285715 0l-0.073142-292.571428H0V457.142857z"  horiz-adv-x="1097" />

    
    <glyph glyph-name="xiangan" unicode="&#59299;" d="M191.5312 0m64 0l256 0q64 0 64-64l0 0q0-64-64-64l-256 0q-64 0-64 64l0 0q0 64 64 64ZM447.5312 576m0-64l0-512q0-64-64-64l0 0q-64 0-64 64l0 512q0 64 64 64l0 0q64 0 64-64ZM383.5312 896a192 192 0 1 0 0-384 192 192 0 0 0 0 384z m0-128a64 64 0 1 1 0-128 64 64 0 0 1 0 128z"  horiz-adv-x="1024" />

    
    <glyph glyph-name="dixiaguanxianguanli" unicode="&#59429;" d="M363.52 564.79v89.5c0 7.48 6.08 13.56 13.56 13.56h327.86c15.15-52.72 63.72-91.45 121.25-91.45 69.6 0 126.23 56.63 126.23 126.23S895.8 828.87 826.19 828.87c-61.15 0-112.25-43.72-123.77-101.54H377.08c-40.28 0-73.05-32.77-73.05-73.05v-89.5c0-7.47-6.08-13.55-13.56-13.55H117.25c-16.43 0-29.74-13.31-29.74-29.74s13.31-29.74 29.74-29.74h145.56c3.24-2.45 6.81-4.48 10.89-5.44 6.16-6.87 14.95-26.75 21.2-50.83H101.51c-16.43 0-29.74-13.31-29.74-29.74S85.08 376 101.51 376h200.9v-165.5h-200.9c-16.43 0-29.74-13.31-29.74-29.74s13.31-29.74 29.74-29.74h201.46c3.57-59.11 26.55-117.07 72.49-117.07h291.46c13.94-54.54 63.34-95.05 122.17-95.05 69.61 0 126.24 56.63 126.24 126.23S858.7 191.36 789.09 191.36c-59.86 0-110.01-41.93-122.91-97.93H379.02c-5.56 6.08-14.1 26.6-16.46 57.59h102.76c10.32-17.69 29.29-29.74 51.21-29.74 32.8 0 59.49 26.69 59.49 59.49s-26.69 59.49-59.49 59.49c-21.92 0-40.89-12.05-51.21-29.74H361.9v165.5h101.44c13.42-55.27 63.19-96.49 122.54-96.49 69.61 0 126.24 56.63 126.24 126.23s-56.63 126.23-126.24 126.23c-59.34 0-109.11-41.22-122.54-96.49H355.76c-4.78 23.81-12.45 49.18-23.53 69.55 18.87 13.19 31.29 35.01 31.29 59.74z m462.67 204.6c36.8 0 66.75-29.95 66.75-66.75s-29.95-66.75-66.75-66.75-66.75 29.95-66.75 66.75 29.95 66.75 66.75 66.75z m-37.1-637.54c36.81 0 66.76-29.95 66.76-66.75s-29.95-66.75-66.76-66.75c-36.8 0-66.74 29.95-66.74 66.75s29.94 66.75 66.74 66.75zM585.88 472.48c36.81 0 66.76-29.95 66.76-66.75s-29.95-66.75-66.76-66.75c-36.8 0-66.74 29.95-66.74 66.75s29.93 66.75 66.74 66.75z"  horiz-adv-x="1024" />

    
    <glyph glyph-name="baojingshengyin" unicode="&#59023;" d="M462.36 760.09L232.69 575.78H110.76c-19.89 0-36-16.12-36-35.97v-297.73c0-19.87 16.11-35.98 36-35.98h115.66l236.01-188.33a36.055 36.055 0 0 1 22.45-7.87c19.83 0 35.95 16.1 35.97 35.95V732.03c0 8.19-2.79 16.14-7.91 22.53-12.43 15.48-35.07 17.97-50.58 5.53z m211.43-192.77l-0.55 0.61c-13.26 13.71-35.55 14.48-49.8 1.72-14.22-12.77-15.02-34.24-1.78-47.95 39.6-41.87 61.5-96.5 61.4-153.13 0.1-61.15-25.43-119.75-70.79-162.53-13.41-13.04-13.59-33.98-0.46-47.25 13.44-13.56 35.72-14.08 49.8-1.16 58.87 55.54 91.99 131.59 91.9 210.95 0.09 73.49-28.32 144.39-79.72 198.74z m130.35 153.47c-13.29 13.31-35.18 13.95-49.29 1.43-14.29-12.7-15.19-34.17-2.02-47.94 80.42-82.19 125.96-190.49 125.96-305.73 0.16-116.08-46.81-227.62-130.95-310.75-0.16-0.16-0.33-0.32-0.51-0.5-13.41-13.56-12.86-35.03 1.23-47.95 14.05-12.93 36.37-12.41 49.78 1.16 96.13 95.22 150.9 222.51 150.9 358.03 0 132.77-52.49 257.61-145.1 352.25z"  horiz-adv-x="1024" />

    
    <glyph glyph-name="gongju1" unicode="&#59046;" d="M794.88 807.978667a42.666667 42.666667 0 0 0 12.885333-67.84v0.042666L619.52 551.808a21.333333 21.333333 0 0 1-2.474667-27.221333l2.474667-2.986667 30.165333-30.122667a21.333333 21.333333 0 0 1 27.221334-2.474666l2.944 2.474666 184.021333 184.021334a42.581333 42.581333 0 0 0 72.405333-9.173334l-2.858666 5.333334a341.504 341.504 0 0 0-432.128-479.445334l-230.613334-230.570666a42.666667 42.666667 0 0 0-60.330666 0L89.6 82.304a42.666667 42.666667 0 0 0 0 60.330667l230.570667 230.613333A341.461333 341.461333 0 0 0 794.88 807.978667zM460.842667 694.613333l-7.296-7.04a256.085333 256.085333 0 0 1-27.690667-329.386666l-60.970667-60.970667v0.042667l-184.746666-184.746667 60.330666-60.330667 241.365334 241.322667 4.352 4.352a256.085333 256.085333 0 0 1 397.226666 269.013333l-1.536 5.973334-141.738666-141.738667-5.632-5.12-2.986667-2.474667-6.058667-4.693333a106.666667 106.666667 0 0 0-130.816 7.253333l-5.333333 5.034667-30.208 30.208-5.12 5.589333-2.474667 2.986667-4.693333 6.101333a106.666667 106.666667 0 0 0 7.253333 130.773334l5.034667 5.376 141.738667 141.738666-5.973334 1.536a256.256 256.256 0 0 1-234.026666-60.8z"  horiz-adv-x="1024" />

    
    <glyph glyph-name="celianggongju" unicode="&#58886;" d="M953.9 177.29999999999995l-246 246 201.5 204.5c25.2 25.5 25.2 66.9 0 92.5l-58.7 59.6c-25.2 25.5-66 25.5-91.2 0L557 574.2 305.1 826.1c-3.5 3.5-8.2 5.5-13.2 5.5s-9.7-2-13.2-5.5L69.9 617.3c-3.5-3.5-5.5-8.2-5.5-13.2s2-9.7 5.5-13.2l94.7-94.7 159-159L217.8 230l-0.2 0.2-0.2-0.7-0.2-0.2 0.1-0.1-47-147.2-0.3-0.3-65-66c-7.2-7.3-7.2-18.9 0-26.2l22.6-23c3.5-3.6 8.3-5.6 13.3-5.6s9.8 2 13.3 5.6l59.9 60.8 152.6 50.2 0.3-0.3 0.7 0.7 106.8 108.4 157.9-157.9 86.3-86.3c3.6-3.6 8.4-5.5 13.2-5.5 4.8 0 9.5 1.8 13.2 5.5l208.8 208.8c7.3 7.3 7.3 19.1 0 26.4zM731.8-18.399999999999977l-60 60 48.1 48.1c7.3 7.3 7.3 19.1 0 26.4-7.3 7.3-19.1 7.3-26.4 0l-48-48.1-90.6 90.6 75.9 75.9c7.3 7.3 7.3 19.1 0 26.4-7.3 7.3-19.1 7.3-26.4 0L528.5 185 438 275.5l48.1 48.1c7.3 7.3 7.3 19.1 0 26.4-7.3 7.3-19.1 7.3-26.4 0l-48.1-48.1-90.6 90.6 70.4 70.4c7.3 7.3 7.3 19.1 0 26.4-7.3 7.3-19.1 7.3-26.4 0l-70.4-70.4-90.6 90.6 48.1 48.1c7.3 7.3 7.3 19.1 0 26.4-7.3 7.3-19.1 7.3-26.4 0l-48.1-48.1-68.3 68.3 182.5 182.5 622.4-622.4-182.4-182.7z"  horiz-adv-x="1024" />

    
    <glyph glyph-name="location-full" unicode="&#59889;" d="M782.8 783.8C713.5 853.1 617.7 896 512 896 300.5 896 129 724.5 129 513c0-84 27.1-161.8 73.2-225.3L512-128l302.6 406.5c50.2 65 80.4 145.9 80.4 234.5 0 105.7-42.9 201.5-112.2 270.8zM512 332.79999999999995c-99.3 0-180.2 80.4-180.2 180.2 0 99.8 80.9 179.7 180.2 179.7s180.2-80.4 180.2-180.2S611.3 332.79999999999995 512 332.79999999999995z"  horiz-adv-x="1024" />

    
    <glyph glyph-name="location" unicode="&#59890;" d="M512 832c43.1 0 84.8-8.4 124.1-25 38-16.1 72.1-39.1 101.4-68.4 29.3-29.3 52.3-63.4 68.4-101.4 16.6-39.3 25-81 25-124.1 0-71-23.2-138.6-67.1-195.4l-0.3-0.4-0.3-0.4L512-20.899999999999977 253.8 325.6C214 380.6 193 445.3 193 513c0 43.1 8.4 84.8 25 124.1 16.1 38 39.1 72.1 68.4 101.4 29.3 29.3 63.4 52.3 101.4 68.4C427.2 823.6 468.9 832 512 832m0-563.2c134.7 0 244.2 109.3 244.2 243.7 0 134.7-109.6 244.2-244.2 244.2S267.8 647.4 267.8 513c0-134.7 109.5-244.2 244.2-244.2M512 896C300.5 896 129 724.5 129 513c0-84 27.1-161.8 73.2-225.3L512-128l302.6 406.5c50.2 65 80.4 145.9 80.4 234.5C895 724.5 723.5 896 512 896z m0-563.2c-99.3 0-180.2 80.4-180.2 180.2 0 99.8 80.9 179.7 180.2 179.7s180.2-80.4 180.2-180.2S611.3 332.79999999999995 512 332.79999999999995z"  horiz-adv-x="1024" />

    
    <glyph glyph-name="checkbox-full" unicode="&#60015;" d="M1024 768.062469v-767.625183c0-70.665495-57.272035-127.937531-127.937531-127.93753h-767.625183c-70.665495 0-127.937531 57.272035-127.93753 127.93753v767.625183c0 70.665495 57.272035 127.937531 127.93753 127.937531h767.625183c70.665495 0 127.937531-57.272035 127.937531-127.937531z"  horiz-adv-x="1024" />

    
    <glyph glyph-name="checkbox" unicode="&#60016;" d="M960.031235 736.078087v-703.656418c0-52.974134-42.979014-95.953148-95.953148-95.953148h-703.656418c-52.974134 0-95.953148 42.979014-95.953148 95.953148v703.656418c0 52.974134 42.979014 95.953148 95.953148 95.953148h703.656418c52.974134 0 95.953148-42.979014 95.953148-95.953148z m-831.593949 159.921913C57.771791 896 0.499756 838.727965 0.499756 768.062469v-767.625183c0-70.665495 57.272035-127.937531 127.93753-127.93753h767.625183c70.665495 0 127.937531 57.272035 127.937531 127.93753v767.625183c0 70.665495-57.272035 127.937531-127.937531 127.937531h-767.625183z"  horiz-adv-x="1024" />

    
    <glyph glyph-name="baojing01" unicode="&#58907;" d="M954.88-128h-885.76c-19.968 0-36.352 16.384-36.352 36.352 0 19.968 16.384 36.352 36.352 36.352h885.248c19.968 0 36.352-16.384 36.352-36.352 0.512-19.968-15.872-36.352-35.84-36.352zM512 722.944c-16.384 0-29.184 13.312-29.184 29.184V866.816c0 16.384 13.312 29.184 29.184 29.184s29.184-13.312 29.184-29.184v-114.688c0-16.384-12.8-29.184-29.184-29.184zM262.144 658.432c-10.24 0-19.968 5.632-25.6 14.848L179.712 772.608c-8.704 13.824-4.608 31.744 9.216 40.448 13.824 8.704 31.744 4.608 40.448-9.216 0.512-0.512 1.024-1.536 1.024-2.048l57.344-99.328c8.192-13.824 3.072-31.744-10.752-39.936-4.608-2.56-9.728-4.096-14.848-4.096zM751.616 658.432c-16.384 0-29.184 13.312-29.184 29.184 0 5.12 1.536 10.24 4.096 14.336l57.344 99.328c8.192 13.824 26.112 18.944 39.936 10.752s18.944-26.112 10.752-39.936l-57.344-99.328c-5.12-8.704-14.848-14.336-25.6-14.336zM526.848 669.696H496.64c-180.224 0-326.656-146.432-327.168-327.168V-91.13599999999997c0-19.968 16.384-36.352 36.352-36.352H817.152c19.968 0.512 36.352 16.896 35.84 36.864v432.64c0.512 181.248-145.408 327.168-326.144 327.68z m-112.64-543.232c0-16.384-13.312-29.184-29.184-29.184-16.384 0-29.184 13.312-29.184 29.184v154.112c0 16.384 13.312 29.184 29.184 29.184 16.384 0 29.184-13.312 29.184-29.184v-154.112z"  horiz-adv-x="1024" />

    
    <glyph glyph-name="baojing1" unicode="&#59033;" d="M984-36.5H814.3V345.6C814.3 513.8 678.6 651 512 651S209.7 513.8 209.7 345.6v-381.3H40c-20.9 0-38-17.1-38-38s17.1-38 38-38h944c20.9 0 38 17.1 38 38 0 20.2-17.1 37.2-38 37.2z m-699.1 0V345.6c0 125.6 102.3 228.6 226.3 228.6s227.1-103.1 227.1-228.6v-381.3c0-0.8-453.4-0.8-453.4-0.8z m113.9 382.1c-20.9 0-38-17.1-38-38V79c0-20.9 17.1-38 38-38s38 17.1 38 38V307.7c-0.8 20.9-17.8 37.9-38 37.9zM512 727c20.9 0 38 17.1 38 38V841.7c0 20.9-17.1 38-38 38s-38-17.1-38-38v-76c0-21.7 17.1-38.7 38-38.7z m286.8-78.3l52.7 53.5c14.7 14 15.5 38 0.8 52.7l-0.8 0.8c-14.7 15.5-38 15.5-52.7 0l-52.7-53.5c-14.7-14-15.5-38-0.8-52.7l0.8-0.8c14.7-15.5 39.5-15.5 52.7 0z m-566.6 0c14.7-15.5 38-15.5 52.7 0 14.7 14 15.5 38 0.8 52.7l-0.8 0.8-52.7 53.5c-14.7 15.5-38 15.5-52.7 0-14.7-14-15.5-38-0.8-52.7l0.8-0.8 52.7-53.5zM40 403h75.2c20.9 0 38 17.1 38 38s-17.1 38-38 38H40c-20.9 0-38-17.1-38-38 0-21 17.1-38 38-38z m868.1 0h75.2c20.9 0 38 17.1 38 38s-17.1 38-38 38h-75.2c-20.9 0-38-17.1-38-38 0.8-21 17.8-38 38-38z"  horiz-adv-x="1024" />

    
    <glyph glyph-name="baobiao" unicode="&#58983;" d="M712.07 41.5H221.43c-26.7 0-48.43 21.73-48.43 48.43V632.3c0 51.94 42.27 94.2 94.21 94.2h399.1c11.46 0 20.76-9.3 20.76-20.76s-9.3-20.76-20.76-20.76h-399.1c-29.05 0-52.7-23.63-52.7-52.69v-542.38c0-3.81 3.11-6.92 6.92-6.92h490.64c3.81 0 6.92 3.11 6.92 6.92V583.34c0 11.46 9.3 20.76 20.76 20.76s20.76-9.3 20.76-20.76v-493.41c-0.02-26.7-21.74-48.43-48.44-48.43zM254.97 562.58c-11.46 0-20.76 9.3-20.76 20.76s9.3 20.76 20.76 20.76c22.3 0 40.43 18.15 40.43 40.44 0 22.31-18.13 40.46-40.43 40.46s-40.46-18.15-40.46-40.46c0-11.46-9.3-20.76-20.76-20.76S173 633.07 173 644.53c0 45.2 36.78 81.97 81.97 81.97s81.94-36.77 81.94-81.97c0-45.18-36.76-81.95-81.94-81.95zM769.03 562.58c-11.46 0-20.76 9.3-20.76 20.76s9.3 20.76 20.76 20.76c22.3 0 40.46 18.15 40.46 40.44 0 22.31-18.16 40.46-40.46 40.46-11.46 0-20.76 9.3-20.76 20.76s9.3 20.76 20.76 20.76c45.19 0 81.97-36.77 81.97-81.97 0-45.2-36.78-81.97-81.97-81.97zM769.03 562.58H254.97c-11.46 0-20.76 9.3-20.76 20.76s9.3 20.76 20.76 20.76h514.07c11.46 0 20.76-9.3 20.76-20.76s-9.31-20.76-20.77-20.76zM668.72 415.7H264.78c-11.46 0-20.76 9.3-20.76 20.76s9.3 20.76 20.76 20.76h403.94c11.46 0 20.76-9.3 20.76-20.76s-9.3-20.76-20.76-20.76zM668.72 317.78H264.78c-11.46 0-20.76 9.3-20.76 20.76s9.3 20.76 20.76 20.76h403.94c11.46 0 20.76-9.3 20.76-20.76s-9.3-20.76-20.76-20.76zM668.72 219.85H264.78c-11.46 0-20.76 9.3-20.76 20.76s9.3 20.76 20.76 20.76h403.94c11.46 0 20.76-9.3 20.76-20.76s-9.3-20.76-20.76-20.76zM769.03 684.99H267.21c-11.46 0-20.76 9.3-20.76 20.76s9.3 20.76 20.76 20.76h501.83c11.46 0 20.76-9.3 20.76-20.76-0.01-11.46-9.31-20.76-20.77-20.76z"  horiz-adv-x="1024" />

    
    <glyph glyph-name="jietu1" unicode="&#61582;" d="M930.5088 118.1696H872.96V606.8736c0 62.1056-50.5344 112.64-112.64 112.64H223.9488V782.8992c0 16.9472-13.7728 30.72-30.72 30.72s-30.72-13.7728-30.72-30.72v-63.3856H95.1808c-16.9472 0-30.72-13.7728-30.72-30.72s13.7728-30.72 30.72-30.72h67.328v-488.704c0-62.1056 50.5344-112.64 112.64-112.64H811.52v-69.2736c0-16.9472 13.7728-30.72 30.72-30.72s30.72 13.7728 30.72 30.72v69.2736h57.4976c16.9472 0 30.72 13.7728 30.72 30.72s-13.7216 30.72-30.6688 30.72z m-655.36 0c-28.2112 0-51.2 22.9888-51.2 51.2V658.0736H760.32c28.2112 0 51.2-22.9888 51.2-51.2v-488.704H275.1488zM693.248 173.4144c-16.9472 0-30.72 13.7728-30.72 30.72v147.712c0 16.9472 13.7728 30.72 30.72 30.72s30.72-13.7728 30.72-30.72v-147.712c0-16.9472-13.7728-30.72-30.72-30.72z"  horiz-adv-x="1024" />

    
    </font>
</defs>
</svg>
